<?xml version="1.0" standalone="no"?>
<!DOCTYPE svg PUBLIC "-//W3C//DTD SVG 1.1//EN" "http://www.w3.org/Graphics/SVG/1.1/DTD/svg11.dtd" >
<!--
2017-1-22: Created.
-->
<svg xmlns="http://www.w3.org/2000/svg">
<metadata>
Created by FontForge 20120731 at Sun Jan 22 13:00:30 2017
 By icons8

</metadata>
<defs>
<font id="LineAwesome" horiz-adv-x="512" >
  <font-face 
    font-family="LineAwesome"
    font-weight="500"
    font-stretch="normal"
    units-per-em="512"
    panose-1="2 0 6 3 0 0 0 0 0 0"
    ascent="448"
    descent="-64"
    bbox="0 -65.5 528 480"
    underline-thickness="25.6"
    underline-position="-51.2"
    unicode-range="U+0020-F38D"
  />
    <missing-glyph />
    <glyph glyph-name="space" unicode=" " horiz-adv-x="200" 
 />
    <glyph glyph-name="code" unicode="&#xf196;" 
d="M288 368h32l-96 -352h-32zM127 345.5l26 -19l-101 -134.5l101 -134.5l-26 -19l-108 144l-7 9.5l7 9.5zM385 345.5l108 -144l7 -9.5l-7 -9.5l-108 -144l-26 19l101 134.5l-101 134.5z" />
    <glyph glyph-name="chain" unicode="&#xf179;" 
d="M348 384c26.7363 0 51.6035 -10.5723 70.5 -29.5c18.9121 -18.9121 29.5 -43.7637 29.5 -70.5s-10.5879 -52.0879 -29.5 -71l-23.5 -23.5c-18.8965 -18.9277 -44.2637 -29.5 -71 -29.5c-12.6875 0 -25.0439 2.44043 -36.5 7l26 26c3.44043 -0.608398 6.91602 -1 10.5 -1
c18.208 0 35.6201 7.12012 48.5 20l23.5 23.5c26.5596 26.5596 26.5596 69.9561 0 96.5c-12.8643 12.8799 -29.8076 20 -48 20c-18.208 0 -35.6357 -7.10352 -48.5 -20l-23.5 -23.5c-15.9521 -15.9355 -22.2637 -38.2803 -19 -59l-26 -26
c-4.55957 11.4561 -7 23.7959 -7 36.5c0 26.7363 10.5879 52.0879 29.5 71l23.5 23.5c18.8965 18.9277 44.2637 29.5 71 29.5zM308.5 267.5l23 -23l-128 -128l-23 23zM188 224c12.6885 0 25.0439 -2.44043 36.5 -7l-26 -26c-3.44043 0.608398 -6.91602 1 -10.5 1
c-18.208 0 -35.6201 -7.12012 -48.5 -20l-23.5 -23.5c-26.5596 -26.5596 -26.5596 -69.9561 0 -96.5c12.8643 -12.8799 29.8076 -20 48 -20c18.208 0 35.6357 7.10352 48.5 20l23.5 23.5c15.9521 15.9355 22.2637 38.2803 19 59l26 26c4.55957 -11.4561 7 -23.7959 7 -36.5
c0 -26.7363 -10.5879 -52.0879 -29.5 -71l-23.5 -23.5c-18.8965 -18.9277 -44.2637 -29.5 -71 -29.5s-51.6035 10.5723 -70.5 29.5c-18.9121 18.9121 -29.5 43.7637 -29.5 70.5s10.5879 52.0879 29.5 71l23.5 23.5c18.8965 18.9277 44.2637 29.5 71 29.5z" />
    <glyph glyph-name="chevron-circle-right" unicode="&#xf182;" 
d="M256 400c114.686 0 208 -93.3145 208 -208s-93.3145 -208 -208 -208s-208 93.3145 -208 208s93.3145 208 208 208zM256 368c-97.3916 0 -176 -78.6084 -176 -176s78.6084 -176 176 -176s176 78.6084 176 176s-78.6084 176 -176 176zM227.5 299.5l96 -96l11 -11.5
l-11 -11.5l-96 -96l-23 23l84.5 84.5l-84.5 84.5z" />
    <glyph glyph-name="dollar" unicode="&#xf1bb;" 
d="M240 400h32v-33.5c45.3545 -7.59766 80 -47.0635 80 -94.5v-16h-32v16c0 35.5264 -28.4736 64 -64 64c-35.4375 0 -64 -28.915 -64 -64c0 -19.5029 6.70898 -29.6875 19 -39.5s30.9951 -17.5 51 -25.5s41.29 -16.3047 59 -30.5s31 -36.0127 31 -64.5
c0 -46.8037 -34.5264 -86.793 -80 -94.5v-33.5h-32v33.5c-45.3545 7.59766 -80 47.0635 -80 94.5v16h32v-16c0 -35.5264 28.4736 -64 64 -64c35.3135 0 64 29.5303 64 64c0 19.6172 -6.70996 29.6484 -19 39.5s-31.0049 18.0039 -51 26s-41.291 15.8623 -59 30
s-31 36.0918 -31 64.5c0 47.1709 34.5957 86.8564 80 94.5v33.5z" />
    <glyph glyph-name="crosshairs" unicode="&#xf1ac;" 
d="M240 400h32v-33c84.2812 -7.63672 151.363 -74.7188 159 -159h33v-32h-33c-7.63672 -84.2812 -74.7188 -151.363 -159 -159v-33h-32v33c-84.2812 7.63672 -151.363 74.7188 -159 159h-33v32h33c7.63672 84.2812 74.7188 151.363 159 159v33zM240 335.5
c-67.0879 -7.25391 -120.246 -60.4121 -127.5 -127.5h31.5v-32h-31.5c7.25391 -67.0879 60.4121 -120.246 127.5 -127.5v31.5h32v-31.5c67.0879 7.25391 120.246 60.4121 127.5 127.5h-31.5v32h31.5c-7.25391 67.0879 -60.4121 120.246 -127.5 127.5v-31.5h-32v31.5z" />
    <glyph glyph-name="gg" unicode="&#xf210;" 
d="M192 342.5l11.5 -11l32 -32l-23 -23l-20.5 20.5l-105 -105l105 -105l41 41l-68.5 68.5l23 23l80 -80l11 -11.5l-11 -11.5l-64 -64l-11.5 -11l-11.5 11l-128 128l-11 11.5l11 11.5l128 128zM320 342.5l11.5 -11l128 -128l11 -11.5l-11 -11.5l-128 -128l-11.5 -11l-11.5 11
l-32 32l23 23l20.5 -20.5l105 105l-105 105l-41 -41l68.5 -68.5l-23 -23l-80 80l-11 11.5l11 11.5l64 64z" />
    <glyph glyph-name="legal" unicode="&#xf25e;" 
d="M255.5 422.5l11 -11l48 -48.5l11.5 -11l-11.5 -11.5l-4.5 -4.5l89.5 -89l4.5 4.5l11.5 11l11 -11l48 -48.5l11.5 -11l-11.5 -11.5l-112 -112l-11 -11.5l-11.5 11.5l-48 48l-11.5 11.5l11.5 11l5.5 5.5l-33 33l-189 -189l-23 23l189 189l-33.5 33.5l-5.5 -5.5l-11 -11.5
l-11.5 11.5l-48 48l-11.5 11.5l11.5 11l112 112.5zM255.5 377.5l-89.5 -89.5l25.5 -25.5l89.5 89.5zM288 313l-57 -57l89 -89l57 57zM415.5 217.5l-4.5 -4.5l-85 -85l25.5 -25.5l89.5 89.5z" />
    <glyph glyph-name="angle-double-left" unicode="&#xf10d;" 
d="M254.5 371.5l22.5 -23l-156.5 -156.5l156.5 -156.5l-22.5 -23l-168 168l-11.5 11.5l11.5 11.5zM366.5 371.5l22.5 -23l-156.5 -156.5l156.5 -156.5l-22.5 -23l-168 168l-11.5 11.5l11.5 11.5z" />
    <glyph glyph-name="flash" unicode="&#xf1fa;" 
d="M302 384l23 -22l-96.5 -102.5l116 -70l17.5 -10.5l-14.5 -14.5l-132.5 -132.5h73v-32h-112h-16v16v112h32v-73l118 118l-115 69.5l-17 10l13.5 14.5z" />
    <glyph glyph-name="foursquare" unicode="&#xf206;" 
d="M160 368h188.5c19.7979 0 35.2793 -18.5684 31.5 -38l-31 -160c-2.94629 -14.8887 -16.2871 -26 -31.5 -26h-55l-101 -120c-5.25684 -5.96387 -14.374 -7.89844 -21 -5.5c-6.77344 2.45215 -12.5 9.86328 -12.5 18v299.5c0 17.4893 14.5107 32 32 32zM160 336v-264
l82 98.5c2.64062 3.03906 8.05176 5.50586 12.0781 5.50586c0.116211 0 0.305664 -0.00292969 0.421875 -0.00585938h63l12.5 64h-98.5c-4.01562 0 -7.5 3.48438 -7.5 7.5v17c0 4 3.48438 7.5 7.5 7.5h104.5l12.5 64h-188.5z" />
    <glyph glyph-name="hourglass-2" unicode="&#xf23c;" 
d="M112 384h288v-32h-32v-64c0 -40.6738 -21.8984 -76.3779 -54.5 -96c32.6016 -19.6221 54.5 -55.3262 54.5 -96v-64h32v-32h-288v32h32v64c0 40.6738 21.8984 76.3779 54.5 96c-32.6016 19.6221 -54.5 55.3262 -54.5 96v64h-32v32zM176 352v-64
c0 -44.3789 35.6211 -80 80 -80s80 35.6211 80 80v64h-160zM194.5 272h123c-7.15234 -27.5518 -31.708 -48 -61.5 -48s-54.3643 20.4482 -61.5 48zM256 176c-44.3789 0 -80 -35.6211 -80 -80v-64h16c0 35.3438 28.6562 64 64 64s64 -28.6562 64 -64h16v64
c0 44.3789 -35.6211 80 -80 80z" />
    <glyph glyph-name="hourglass-3" unicode="&#xf23d;" 
d="M112 384h288v-32h-32v-64c0 -40.6738 -21.8984 -76.3779 -54.5 -96c32.6016 -19.6221 54.5 -55.3262 54.5 -96v-64h32v-32h-32h-224h-32v32h32v64c0 40.6738 21.8984 76.3779 54.5 96c-32.6016 19.6221 -54.5 55.3262 -54.5 96v64h-32v32zM176 352v-64
c0 -44.3789 35.6211 -80 80 -80s80 35.6211 80 80v64h-160zM256 176c-44.3789 0 -80 -35.6211 -80 -80v-64h16v32c0 35.3438 28.6562 64 64 64s64 -28.6562 64 -64v-32h16v64c0 44.3789 -35.6211 80 -80 80z" />
    <glyph glyph-name="th" unicode="&#xf339;" 
d="M48 352h16h384h16v-16v-288v-16h-16h-384h-16v16v288v16zM80 320v-64h64v64h-64zM176 320v-64h64v64h-64zM272 320v-64h64v64h-64zM368 320v-64h64v64h-64zM80 224v-64h64v64h-64zM176 224v-64h64v64h-64zM272 224v-64h64v64h-64zM368 224v-64h64v64h-64zM80 128v-64h64
v64h-64zM176 128v-64h64v64h-64zM272 128v-64h64v64h-64zM368 128v-64h64v64h-64z" />
    <glyph glyph-name="angle-left" unicode="&#xf111;" 
d="M304.5 379.5l23 -23l-164.5 -164.5l164.5 -164.5l-23 -23l-176 176l-11 11.5l11 11.5z" />
    <glyph glyph-name="recycle" unicode="&#xf2d2;" 
d="M256 384.5c16.8721 0 33.8848 -8.26562 44 -24l50 -81l23 13.5v-85l-74 41.5l24 14l-50 80c-8.47559 13.1846 -24.8496 12.8965 -33.5 0l-45 -73.5l-27.5 16.5l45 74c10.1152 15.7344 27.1279 24 44 24zM166.5 254.5v-85l-24.5 15l-42 -68v-0.5l-0.5 -0.5
c-10.6436 -15.4814 0.233398 -35.5 20.5 -35.5h88v-32h-88c-43.3848 0 -70.5371 49.3418 -47 85c0.189453 0.287109 -0.196289 0.714844 0 1l0.5 -0.5l41 67.5l-20 12zM401 197.5l40 -64v-0.5c21.7559 -36.9844 -5.31055 -85 -47.5 -85h-89.5v-32l-78.5 48l78.5 48v-32h89.5
c18.6104 0 30.2441 19.085 20 36.5l-40 64z" />
    <glyph glyph-name="file-code-o" unicode="&#xf1e2;" 
d="M80 400h16h192h6.5l5 -4.5l96 -96l4.5 -5v-6.5v-288v-16h-16h-288h-16v16v384v16zM112 368v-352h256v256h-80h-16v16v80h-160zM304 345v-41h41zM240 240h32l-32 -192h-32zM179.5 202l25 -20l-31.5 -38l31.5 -38l-25 -20l-40 48l-8.5 10l8.5 10zM300.5 202l40 -48l8.5 -10
l-8.5 -10l-40 -48l-25 20l31.5 38l-31.5 38z" />
    <glyph glyph-name="thumb-tack" unicode="&#xf33c;" 
d="M327.5 407l12 -11.5l120 -120l11 -11.5l-11 -11.5c-20.2842 -20.2842 -48.7012 -28.3027 -76.5 -25l-57 -57c10.0557 -41.4072 0.532227 -87.4678 -33 -121l-11.5 -11.5l-11 11.5l-67.5 67.5l-132.5 -133h-22.5v22.5l133 132.5l-69 69l-11.5 11l11.5 11.5
c30.4443 30.4443 72.9482 41.5215 112.5 34.5l65 65c1.82422 23.3145 9.7832 46.6123 26.5 65zM331 358c-6.31543 -11.4863 -11 -23.6533 -11 -36.5v-6.5l-4.5 -4.5l-74 -74l-6.5 -6.5l-8.5 2.5c-26.2168 6.83887 -54.2305 -0.506836 -77.5 -16.5l131 -131
c18.5459 25.9932 22.9023 57.7939 13.5 86l-3 9.5l7 7l67 67l6.5 6.5l9 -2.5c14.5488 -3.63672 28.793 1.02832 42 8.5z" />
    <glyph glyph-name="fax" unicode="&#xf1dc;" 
d="M192 368h16h160h16v-16v-64h48h16v-16v-224v-16h-16h-240v-16c0 -26.3271 -21.6729 -48 -48 -48s-48 21.6729 -48 48v16h-16h-16v16v256v16h16h64h16v-16v-16h32v64v16zM224 336v-80h128v80h-128zM96 288v-224h32v208v16h-32zM160 256v-192h256v192h-32v-16v-16h-16h-160
h-16v16v16h-32zM208 192h32v-32h-32v32zM272 192h32v-32h-32v32zM336 192h32v-32h-32v32zM208 128h32v-32h-32v32zM272 128h32v-32h-32v32zM336 128h32v-32h-32v32zM128 32v-16c0 -8.87305 7.12695 -16 16 -16s16 7.12695 16 16v16h-16h-16z" />
    <glyph glyph-name="xing-square" unicode="&#xf383;" 
d="M342.5 368h46.5c6.77539 0 15.5244 -3.2041 20 -10.5c4.66406 -7.4873 3.67578 -16.1475 0.5 -22.5c-0.12793 -0.28125 -0.352539 -0.728516 -0.5 -1l-98 -173l61 -111c0.140625 -0.134766 0.365234 -0.359375 0.5 -0.5c3.18945 -6.30078 3.69043 -15.543 -1 -23
c-4.37598 -6.97852 -12.6768 -10.5 -19.5 -10.5h-46c-7.07129 0 -14.0361 2.83594 -18.5 6.5s-6.90137 7.60742 -8.5 10.5c0 0 -65.8398 120.68 -66 121c-0.529297 0.916016 -1.20215 2.48438 -1.5 3.5c-6.81152 -12.0439 -16 -28.5 -16 -28.5
c-1.5293 -2.77734 -3.60254 -6.74805 -8 -10.5s-11.4512 -6.5 -18.5 -6.5h-46c-7.7002 0 -16.0498 4.16895 -20 10.5c-4.45215 7.1123 -3.91895 16.3311 -0.5 23c0.134766 0.140625 0.359375 0.365234 0.5 0.5l44.5 78.5l-26.5 46.5
c-0.140625 0.134766 -0.365234 0.359375 -0.5 0.5c-3.08496 5.90918 -4.70117 15.2676 0 23l0.25 0.00195312l0.25 -0.00195312c4.87598 7.77539 12.9092 10.5 19.5 10.5h46.5c6.9873 0 13.5176 -2.86621 18 -6.5s6.91504 -7.67383 8.5 -10.5
c0 0 31.3076 -54.1963 31.5 -54.5c0.787109 -1.28613 1.68359 -3.52539 2 -5c30.4424 53.9834 69 122.5 69 122.5c1.49707 2.70312 3.5752 6.71191 8 10.5s11.6865 6.5 18.5 6.5zM344.5 336c-0.207031 -0.302734 -0.12793 0.170898 -0.5 -0.5
c0 0 -87.0576 -155.105 -98 -174.5c7.26855 -13.3506 61 -112.5 61 -112.5c0.258789 -0.469727 0.335938 -0.268555 0.5 -0.5h29l-57 104v0.5l-0.5 1h0.5c-2.07617 4.58008 -2.33984 12.2793 -0.5 15.5l94 167h-28.5zM156.5 273l23 -40
c0.314453 -0.532227 0.762695 -1.42871 1 -2c0.349609 -0.816406 1.5 -3.25977 1.5 -6.5s-1.15039 -5.18359 -1.5 -6c-0.102539 -0.560547 -0.326172 -1.45703 -0.5 -2l-41.5 -72.5h28.5c0.196289 0.283203 0.183594 -0.0742188 0.5 0.5c0 0 37.3232 66.0332 45.5 80.5
c-7.14746 12.4424 -27 47 -27 47c-0.140625 0.134766 -0.365234 0.359375 -0.5 0.5c-0.421875 0.75293 -0.391602 0.356445 -0.5 0.5h-28.5z" />
    <glyph glyph-name="hospital-o" unicode="&#xf238;" 
d="M224 400h32v-32h32v-32h-32v-32h-32v32h-32v32h32v32zM80 368h16h64v-32h-48v-304h80v32v16h16h64h16v-16v-32h80v304h-48v32h64h16v-16v-336v-16h-16h-112h-16v16v32h-32v-32v-16h-16h-112h-16v16v336v16zM160 272h32v-32h-32v32zM224 272h32v-32h-32v32zM288 272h32
v-32h-32v32zM160 208h32v-32h-32v32zM224 208h32v-32h-32v32zM288 208h32v-32h-32v32zM160 144h32v-32h-32v32zM224 144h32v-32h-32v32zM288 144h32v-32h-32v32z" />
    <glyph glyph-name="volume-up" unicode="&#xf375;" 
d="M240 374.5v-38.5v-288v-38.5l-27.5 27l-75.5 75.5h-57h-16v16v128v16h16h57l75.5 75.5zM386 346c38.1602 -40.1758 62 -94.3359 62 -154s-23.8398 -113.808 -62 -154l-22.5 22.5c32.3838 34.3838 52.5 80.6523 52.5 131.5s-20.1162 97.1318 -52.5 131.5zM341 301
c26.5762 -28.5762 43 -66.9844 43 -109s-16.4238 -80.4082 -43 -109l-22.5 23c20.7998 22.7842 33.5 52.7998 33.5 86s-12.7002 63.2324 -33.5 86zM208 297l-52.5 -52.5l-5 -4.5h-6.5h-48v-96h48h6.5l5 -4.5l52.5 -52.5v210zM296 255.5
c15.0244 -16.9443 24 -39.1318 24 -63.5s-8.97559 -46.5557 -24 -63.5l-23 23c9.24805 11.1035 15 24.9482 15 40.5s-5.75195 29.3965 -15 40.5z" />
    <glyph glyph-name="spoon" unicode="&#xf312;" 
d="M369.5 384c7.14062 0.132812 14.166 -0.601562 21 -2c13.667 -2.79688 26.2627 -8.7627 36.5 -19c20.4746 -20.4746 23.9668 -50.5801 18.5 -79s-19.9248 -56.9248 -41 -78s-45.876 -30.957 -70 -30c-18.7842 0.745117 -36.6279 8.05371 -52 19.5l-191 -191l-23 23
l191 191c-11.4463 15.3721 -18.7549 33.2158 -19.5 52c-0.957031 24.124 8.9248 48.9248 30 70s49.5801 35.5332 78 41c7.10449 1.36719 14.3594 2.36719 21.5 2.5zM369.5 352c-4.94434 -0.0761719 -10.0771 -0.457031 -15.5 -1.5
c-21.6924 -4.17285 -45.0195 -16.5195 -61 -32.5s-21.5869 -31.1953 -21 -46s7.86328 -29.8633 21 -43s28.1953 -20.4131 43 -21s30.0195 5.01953 46 21s28.3271 39.3076 32.5 61s0.405273 40.0947 -10 50.5c-5.20312 5.20312 -12.4014 8.80566 -21 10.5
c-4.2998 0.847656 -9.05566 1.07617 -14 1z" />
    <glyph glyph-name="facebook" unicode="&#xf1d7;" 
d="M112 368h288c17.4893 0 32 -14.5107 32 -32v-288c0 -17.4893 -14.5107 -32 -32 -32h-288c-17.4893 0 -32 14.5107 -32 32v288c0 17.4893 14.5107 32 32 32zM112 336v-288h155v108h-42v48h42v36c0 41.3281 25.1357 63.5 62 63.5c17.6641 0 33.0684 -0.908203 37.5 -1.5
v-43.5h-26c-20.0479 0 -23.5 -9.51562 -23.5 -23.5v-31h47.5l-6 -48h-41.5v-108h83v288h-288z" />
    <glyph glyph-name="cloud-download" unicode="&#xf193;" 
d="M256 368c54.043 0 98.2383 -34.0947 117.5 -81c56.4316 -2.91113 101.284 -47.7734 105 -104c19.8281 -17.627 33.5 -42.833 33.5 -71c0 -53.1807 -42.8193 -96 -96 -96h-320c-53.1807 0 -96 42.8193 -96 96c0 44.0117 30.1396 79.0977 69.5 90.5
c9.54785 27.1855 32.792 46.7031 61.5 51.5c7.25781 63.9092 59.0967 114 125 114zM256 336c-53.9209 0 -96 -42.0781 -96 -96v-16h-16c-23.1016 0 -42.2061 -15.4277 -47 -37l-2 -10.5l-10.5 -2c-29.3184 -5.09863 -52.5 -30.1797 -52.5 -62.5
c0 -36.4189 27.5811 -64 64 -64h320c36.4189 0 64 27.5811 64 64c0 20.2666 -10.3965 39.6719 -25.5 51l-6.5 5v8c0 44.0723 -35.9277 80 -80 80h-5h-11.5l-3.5 11.5c-12.4629 40.1572 -47.7998 68.5 -92 68.5zM240 256h32v-105l36.5 36.5l23 -23l-64 -64l-11.5 -11
l-11.5 11l-64 64l23 23l36.5 -36.5v105z" />
    <glyph glyph-name="trophy" unicode="&#xf351;" 
d="M112 384c20.4316 0 34.4434 -9.33691 42 -16h204c7.55469 6.66309 21.5605 16 42 16c15.083 0 30.6543 -5.68457 43 -16.5s21 -27.4609 21 -47.5c0 -16.9941 -7.13965 -31.5283 -16 -43s-19.6191 -20.5762 -29.5 -29.5c-19.7607 -17.8486 -34.5 -32.5322 -34.5 -55.5
c0 -2.4248 2.3916 -8.33105 5.5 -13s6 -7.5 6 -7.5l-23 -22.5s-5.1084 5.15332 -10 12.5c-4.31152 6.47656 -8.90625 14.9912 -10 26c-1.95312 -5.50684 -3.91895 -11.1836 -6 -16.5c-11.1006 -28.3525 -23.6387 -53.8936 -38 -73
c-5.22949 -6.95801 -10.9717 -13.1758 -17 -18.5c33.5332 -1.85645 60.5 -29.5293 60.5 -63.5v-16h-16h-160h-16v16c0 33.6367 26.4258 61.1533 59.5 63.5c-5.94141 5.32324 -11.291 11.5225 -16.5 18.5c-14.3047 19.1611 -26.9717 44.6113 -38 73
c-1.93652 4.98633 -3.67773 10.3428 -5.5 15.5c-1.27344 -10.5371 -5.81543 -18.7148 -10 -25c-4.8916 -7.34668 -10 -12.5 -10 -12.5l-23 22.5s2.8916 2.83105 6 7.5s5.5 10.5752 5.5 13c0 22.9678 -14.7393 37.6514 -34.5 55.5
c-9.88086 8.92383 -20.6396 18.0283 -29.5 29.5s-16 26.0059 -16 43c0 20.0391 8.6543 36.6846 21 47.5s27.917 16.5 43 16.5zM112 352c-6.94922 0 -15.3535 -3.11523 -21.5 -8.5s-10.5 -12.3389 -10.5 -23.5c0 -8.68652 2.86035 -15.5518 9 -23.5
s15.3809 -16.3604 25.5 -25.5c9.34766 -8.44238 19.9932 -17.9854 28.5 -29.5c-8.92383 36.3613 -14.5479 73.3799 -15 106c-3.55273 2.11621 -8.41895 4.5 -16 4.5zM400 352c-7.59082 0 -12.4492 -2.38379 -16 -4.5c-0.466797 -33.0781 -6.30762 -70.3965 -15.5 -107
c8.62012 11.9072 19.416 21.8438 29 30.5c10.1191 9.13965 19.3604 17.5518 25.5 25.5s9 14.8135 9 23.5c0 11.1611 -4.35352 18.1152 -10.5 23.5s-14.5508 8.5 -21.5 8.5zM162 336c2.43848 -47.3066 14.3574 -105.511 33 -153.5c10.3154 -26.5557 22.4141 -49.4814 34 -65
s21.8018 -21.5 26.5 -21.5c4.73047 0 15.3691 6.02637 27 21.5s23.6201 38.4883 34 65c18.7686 47.9395 31.0527 105.953 33.5 153.5h-188zM240 288h32v-80h-32v80zM224 48c-11.4795 0 -19.3613 -7.08984 -25 -16h114c-5.63867 8.91016 -13.5205 16 -25 16h-64z" />
    <glyph glyph-name="caret-up" unicode="&#xf16c;" 
d="M256 310.5l11.5 -11l160 -160l27 -27.5h-38.5h-320h-38.5l27 27.5l160 160zM256 265l-121 -121h242z" />
    <glyph glyph-name="magic" unicode="&#xf276;" 
d="M334 407l11.5 -11.5l29 -29h40h16v-16v-40l29 -29l11.5 -11.5l-12 -11l-28.5 -27v-41.5v-16h-16h-40l-29 -27.5l-11.5 -11l-11 11l-24 24l-187 -186.5l-11 -11.5l-11.5 11.5l-41 41l-11.5 11l11.5 11.5l186.5 187l-24 24l-11 11l11 11.5l27.5 29v40v16h16h41.5l27 28.5z
M334.5 361l-20.5 -21.5l-4.5 -5h-7h-32v-30.5v-6.5l-4.5 -4.5l-21.5 -22.5l13.5 -13.5l61 61.5l11.5 11l11 -11l41 -41l11.5 -11.5l-11.5 -11.5l-61 -61l13 -13l22.5 21.5l4.5 4.5h6.5h30.5v32v7l5 4.5l21.5 20.5l-22 22l-4.5 5v6.5v30.5h-30.5h-6.5l-5 4.5zM330.5 284.5
l-248 -248l18.5 -18.5l247.5 248zM304 112h32v-16h16v-32h-16v-16h-32v16h-16v32h16v16zM400 80h32v-32h32v-32h-32v-32h-32v32h-32v32h32v32z" />
    <glyph glyph-name="hourglass-o" unicode="&#xf240;" 
d="M112 384h288v-32h-32v-64c0 -40.6738 -21.8984 -76.3779 -54.5 -96c32.6016 -19.6221 54.5 -55.3262 54.5 -96v-64h32v-32h-32h-224h-32v32h32v64c0 40.6738 21.8984 76.3779 54.5 96c-32.6016 19.6221 -54.5 55.3262 -54.5 96v64h-32v32zM176 352v-64
c0 -44.3789 35.6211 -80 80 -80s80 35.6211 80 80v64h-160zM256 176c-44.3789 0 -80 -35.6211 -80 -80v-64h160v64c0 44.3789 -35.6211 80 -80 80z" />
    <glyph glyph-name="balance-scale" unicode="&#xf12b;" 
d="M256 368c20.6719 0 38.3086 -13.5078 45 -32h115v-32h-22.5l4.5 -8l64 -112l2 -4v-4c0 -43.9922 -36.0078 -80 -80 -80s-80 36.0078 -80 80v4l2 4l64 112l4.5 8h-73.5c-4.86328 -13.4395 -15.5605 -24.1367 -29 -29v-211h64v-32h-160v32h64v211
c-13.4736 4.87109 -24.1152 15.5 -29 29h-73.5l4.5 -8l64 -112l2 -4v-4c0 -43.9922 -36.0078 -80 -80 -80s-80 36.0078 -80 80v4l2 4l64 112l4.5 8h-22.5v32h115c6.69141 18.4922 24.3281 32 45 32zM256 336c-9.02637 0 -16 -6.97363 -16 -16s6.97363 -16 16 -16
s16 6.97363 16 16s-6.97363 16 -16 16zM128 255.5l-36.5 -63.5h73zM384 255.5l-36.5 -63.5h73zM84 160c6.43164 -18.5762 23.1035 -32 44 -32s37.5684 13.4238 44 32h-88zM340 160c6.43164 -18.5762 23.1035 -32 44 -32s37.5684 13.4238 44 32h-88z" />
    <glyph glyph-name="upload" unicode="&#xf362;" 
d="M256 390.5l11.5 -11l112 -112l-23 -23l-84.5 84.5v-265h-32v265l-84.5 -84.5l-23 23l112 112zM112 32h288v-32h-288v32z" />
    <glyph glyph-name="magnet" unicode="&#xf277;" 
d="M256 368c97.0146 0 176 -78.9854 176 -176v-160v-16h-16h-96h-16v16v160c0 26.6953 -21.3047 48 -48 48s-48 -21.3047 -48 -48v-160v-16h-16h-96h-16v16v160c0 97.0146 78.9854 176 176 176zM256 336c-79.7217 0 -144 -64.2783 -144 -144v-80h64v80
c0 43.9922 36.0078 80 80 80s80 -36.0078 80 -80v-80h64v80c0 79.7217 -64.2783 144 -144 144zM112 80v-32h64v32h-64zM336 80v-32h64v32h-64z" />
    <glyph glyph-name="adjust" unicode="&#xf101;" 
d="M256 384c105.85 0 192 -86.1504 192 -192s-86.1504 -192 -192 -192s-192 86.1504 -192 192s86.1504 192 192 192zM256 352c-88.5547 0 -160 -71.4453 -160 -160s71.4453 -160 160 -160v320z" />
    <glyph glyph-name="subway" unicode="&#xf329;" 
d="M160 384h192c43.9922 0 80 -36.0078 80 -80v-192c0 -38.7939 -23.208 -72.3936 -56.5 -87.5l40.5 -40.5h-37.5l-32.5 32.5c-3.21777 -0.329102 -6.69824 -0.5 -10 -0.5h-160c-3.30176 0 -6.78223 0.170898 -10 0.5l-32.5 -32.5h-37.5l40.5 40.5
c-33.292 15.1064 -56.5 48.7061 -56.5 87.5v192c0 43.9922 36.0078 80 80 80zM160 352c-21.0938 0 -38.9883 -13.248 -45.5 -32h283c-6.51172 18.752 -24.4062 32 -45.5 32h-192zM112 288v-96h128v96h-128zM272 288v-96h128v96h-128zM112 160v-48
c0 -35.5264 28.4736 -64 64 -64h160c35.5264 0 64 28.4736 64 64v48h-288zM168 128c13.2549 0 24 -10.7451 24 -24s-10.7451 -24 -24 -24s-24 10.7451 -24 24s10.7451 24 24 24zM344 128c13.2549 0 24 -10.7451 24 -24s-10.7451 -24 -24 -24s-24 10.7451 -24 24
s10.7451 24 24 24z" />
    <glyph glyph-name="chevron-down" unicode="&#xf184;" 
d="M110.5 342.5l11 -11l134.5 -134.5l134.5 134.5l11 11l11.5 -11l62.5 -62.5l11 -11.5l-11 -11l-208 -208l-11.5 -11.5l-11.5 11.5l-208 208l-11 11l11 11.5l62.5 62.5zM110 297l-39 -39l185 -185.5l185 185.5l-39 39l-134.5 -134l-11.5 -11l-11.5 11z" />
    <glyph glyph-name="location-arrow" unicode="&#xf270;" 
d="M256 377l14.5 -35l128 -304l14.5 -34l-34.5 13l-122.5 46l-122.5 -46l-34.5 -13l14.5 34l128 304zM256 295.5l-99 -235.5l93.5 35l5.5 2l5.5 -2l93.5 -35z" />
    <glyph glyph-name="check-circle" unicode="&#xf17c;" 
d="M256 400c56 0 107.2 -22.2002 144 -59l-22.5 -22.5c-30.4004 30.4004 -73.5 49.5 -121.5 49.5c-97.5996 0 -176 -78.4004 -176 -176s78.4004 -176 176 -176s176 78.4004 176 176c0 14.4004 -1.7998 27.2002 -5 40l26 25.5c8 -20.7998 11 -43.0996 11 -65.5
c0 -115.2 -92.7998 -208 -208 -208s-208 92.7998 -208 208s92.7998 208 208 208zM436.5 331.5l23 -23l-192 -192l-11.5 -11l-11.5 11l-80 80l23 23l68.5 -68.5z" />
    <glyph glyph-name="arrow-down" unicode="&#xf11f;" 
d="M240 384h32v-321l108.5 108.5l23 -23l-136 -136l-11.5 -11l-11.5 11l-136 136l23 23l108.5 -108.5v321z" />
    <glyph glyph-name="bicycle" unicode="&#xf144;" 
d="M304 352h16h72c21.9053 0 40 -18.0947 40 -40s-18.0947 -40 -40 -40v32c4.59082 0 8 3.40918 8 8s-3.40918 8 -8 8h-49.5l43 -98.5c7.22656 1.6084 14.8135 2.5 22.5 2.5c57.127 0 104 -46.873 104 -104s-46.873 -104 -104 -104s-104 46.873 -104 104
c0 38.2471 20.9688 71.9355 52 90l-10.5 24l-78 -115l-5 -7h-8.5h-46.5c-4.15723 -53.5635 -48.8887 -96 -103.5 -96c-57.3438 0 -104 46.6562 -104 104s46.6719 104 104 104c10.625 0 20.8408 -1.52539 30.5 -4.5l43.5 61.5l5 7h8h131l-16.5 38l-1.5 3v3v4v16zM128 336h80
l16 -32h-96v32zM215.5 256l42 -95l64.5 95h-106.5zM187.5 240l-24 -34.5c16.207 -11.2695 28.7871 -27.0742 36.5 -45.5h-36c-12.9277 19.2803 -35.0879 32 -60 32c-39.6963 0 -72 -32.3037 -72 -72s32.3037 -72 72 -72c36.9521 0 66.9541 28.1094 71 64h-79v32h133.5z
M408 192c-3.08008 0 -6.01953 -0.62207 -9 -1l31.5 -72.5l-29 -13l-32.5 74.5c-19.6758 -12.8711 -33 -34.8066 -33 -60c0 -39.6729 32.3271 -72 72 -72s72 32.3271 72 72s-32.3271 72 -72 72z" />
    <glyph glyph-name="instagram" unicode="&#xf24d;" 
d="M128 368h256c26.3193 0 48 -21.6807 48 -48v-256c0 -26.3193 -21.6807 -48 -48 -48h-256c-26.3193 0 -48 21.6807 -48 48v256c0 26.3193 21.6807 48 48 48zM336 320v-48h48v48h-48zM256 256c-35.5361 0 -64 -28.4639 -64 -64s28.4639 -64 64 -64s64 28.4639 64 64
s-28.4639 64 -64 64zM112 224v-160c0 -9.04004 6.95996 -16 16 -16h256c9.04004 0 16 6.95996 16 16v160h-53.5c3.54395 -9.99023 5.5 -20.8291 5.5 -32c0 -52.8301 -43.1699 -96 -96 -96s-96 43.1699 -96 96c0 11.1709 1.95605 22.0098 5.5 32h-53.5z" />
    <glyph glyph-name="caret-square-o-up" unicode="&#xf16b;" 
d="M80 368h16h320h16v-16v-320v-16h-16h-320h-16v16v320v16zM112 336v-288h288v288h-288zM256 270.5l11.5 -11l96 -96l-23 -23l-84.5 84.5l-84.5 -84.5l-23 23l96 96z" />
    <glyph glyph-name="crop" unicode="&#xf1ab;" 
d="M128 384h32v-265l169 169h-153v32h185l59.5 59.5l23 -23l-59.5 -59.5v-185h-32v153l-169 -169h265v-32h-64v-64h-32v64h-208h-16v16v208h-64v32h64v64z" />
    <glyph glyph-name="external-link" unicode="&#xf1d2;" 
d="M288 368h128h16v-16v-128h-32v89l-196.5 -196.5l-23 23l196.5 196.5h-89v32zM80 304h208l-32 -32h-144v-224h224v144l32 32v-208h-288v288z" />
    <glyph glyph-name="arrow-circle-down" unicode="&#xf117;" 
d="M256 400c114.686 0 208 -93.3145 208 -208s-93.3145 -208 -208 -208s-208 93.3145 -208 208s93.3145 208 208 208zM256 368c-97.3916 0 -176 -78.6084 -176 -176s78.6084 -176 176 -176s176 78.6084 176 176s-78.6084 176 -176 176zM240 304h32v-164.5l64 64l22.5 -23
l-91 -91l-11.5 -11.5l-11.5 11.5l-91 91l22.5 23l64 -64v164.5z" />
    <glyph glyph-name="paper-plane" unicode="&#xf2a8;" 
d="M57.5 362.5l28.5 -11.5l352 -144l36.5 -15l-36.5 -15l-352 -144l-28.5 -11.5l7 30l31 140.5l-31 140.5zM102 309.5l22.5 -101.5h226zM124.5 176l-22.5 -101.5l248.5 101.5h-226z" />
    <glyph glyph-name="meanpath" unicode="&#xf287;" 
d="M48 272h48c12.2695 0 23.4736 -4.80273 32 -12.5c8.52637 7.69727 19.7305 12.5 32 12.5h48c26.3193 0 48 -21.6807 48 -48v-112h-32v112c0 9.04004 -6.95996 16 -16 16h-48c-9.04004 0 -16 -6.95996 -16 -16v-112h-32v112c0 9.04004 -6.95996 16 -16 16h-48
c-9.04004 0 -16 -6.95996 -16 -16v-112h-32v112c0 26.3193 21.6807 48 48 48zM336 272h96c26.3193 0 48 -21.6807 48 -48v-64c0 -26.3193 -21.6807 -48 -48 -48h-96c-5.64746 0 -10.9482 1.17188 -16 3v-67h-32v112v48v16c0 26.3193 21.6807 48 48 48zM336 240
c-9.04004 0 -16 -6.95996 -16 -16v-16v-48c0 -9.04004 6.95996 -16 16 -16h96c9.04004 0 16 6.95996 16 16v64c0 9.04004 -6.95996 16 -16 16h-96z" />
    <glyph glyph-name="long-arrow-left" unicode="&#xf273;" 
d="M173 299.5l22.5 -23l-68.5 -68.5h321v-32h-321l68.5 -68.5l-22.5 -23l-96 96l-11.5 11.5l11.5 11.5z" />
    <glyph glyph-name="download" unicode="&#xf1bd;" 
d="M240 384h32v-265l84.5 84.5l23 -23l-112 -112l-11.5 -11l-11.5 11l-112 112l23 23l84.5 -84.5v265zM112 32h288v-32h-288v32z" />
    <glyph glyph-name="bold" unicode="&#xf14b;" 
d="M256 336h-144v-288h176c44.7998 0 80 35.2002 80 80c0 35.2002 -22.4004 64 -52.7998 75.2002c12.7998 14.3994 20.7998 32 20.7998 52.7998c0 44.7998 -35.2002 80 -80 80zM144 208v96h112c27.2002 0 48 -20.7998 48 -48s-20.7998 -48 -48 -48h-112zM144 80v96h144
c27.2002 0 48 -20.7998 48 -48s-20.7998 -48 -48 -48h-144zM256 368v0c62.4004 0 112 -49.5996 112 -112c0 -14.4004 -3.2002 -28.7998 -8 -41.5996c24 -20.8008 40 -52.8008 40 -86.4004c0 -62.4004 -49.5996 -112 -112 -112h-176h-32v32v288v32h32h144zM176 272v0v-32h80
c9.59961 0 16 6.40039 16 16s-6.40039 16 -16 16h-80zM176 144v0v-32h112c9.59961 0 16 6.40039 16 16s-6.40039 16 -16 16h-112z" />
    <glyph glyph-name="caret-down" unicode="&#xf165;" 
d="M57.5 256h38.5h320h38.5l-27 -27.5l-160 -160l-11.5 -11l-11.5 11l-160 160zM135 224l121 -121l121 121h-242z" />
    <glyph glyph-name="chevron-left" unicode="&#xf185;" 
d="M316 406.5l11.5 -11l57.5 -58l11 -11l-11 -11.5l-123 -123l123 -123l11 -11.5l-11 -11l-57.5 -58l-11.5 -11l-11.5 11l-192 192l-11 11.5l11 11.5l192 192zM316 361l-169 -169l169 -169l35 35l-123 122.5l-11.5 11.5l11.5 11.5l123 122.5z" />
    <glyph glyph-name="font" unicode="&#xf202;" 
d="M240 352h32l112 -320h-32l-33.5 96h-125l-33.5 -96h-32zM256 306.5l-51 -146.5h102z" />
    <glyph glyph-name="pinterest" unicode="&#xf2ba;" 
d="M256 384c106.032 0 192 -85.9678 192 -192s-85.9678 -192 -192 -192c-19.792 0 -38.8799 3.00781 -56.8477 8.54395c7.83984 12.752 19.5352 33.6641 23.8721 50.3359c2.33594 8.99219 11.9678 45.6484 11.9678 45.6484c6.25586 -11.9365 24.5439 -22.0479 44 -22.0479
c57.9033 0 99.6318 53.2471 99.6318 119.424c0 63.4395 -51.7598 110.896 -118.368 110.896c-82.8643 0 -126.864 -55.6318 -126.864 -116.191c0 -28.1602 14.9922 -63.2168 38.9766 -74.3848c3.63184 -1.69531 5.58398 -0.959961 6.41602 2.56055
c0.639648 2.67188 3.87207 15.7119 5.32812 21.7754c0.463867 1.93652 0.239258 3.60059 -1.32812 5.50488c-7.93652 9.63184 -14.2881 27.3271 -14.2881 43.8232c0 42.3525 32.0635 83.3281 86.6875 83.3281c47.168 0 80.1924 -32.1436 80.1924 -78.1123
c0 -51.9355 -26.2236 -87.9199 -60.3516 -87.9199c-18.8486 0 -32.96 15.584 -28.4326 34.7041c5.42383 22.8164 15.9043 47.4404 15.9043 63.9199c0 14.7363 -7.9043 27.04 -24.2881 27.04c-19.2637 0 -34.7363 -19.9199 -34.7363 -46.624
c0 -16.9912 5.74414 -28.4961 5.74414 -28.4961s-19.0234 -80.4639 -22.5117 -95.4395c-3.87207 -16.5762 -2.35254 -39.8877 -0.671875 -55.0723c-71.4238 27.9678 -122.032 97.4404 -122.032 178.784c0 106.032 85.9678 192 192 192z" />
    <glyph glyph-name="cart-plus" unicode="&#xf16e;" 
d="M64 336h35.5c14.6885 0 27.4482 -9.75977 31 -24l42 -168h199.5l38.5 144h33.5l-41.5 -152.5c-3.80762 -13.9199 -16.0684 -23.5 -30.5 -23.5h-20h-144h-35.5c-14.6885 0 -27.4316 9.75977 -31 24l-42 168h-35.5c-8.83203 0 -16 7.16797 -16 16s7.16797 16 16 16z
M352 112c26.3203 0 48 -21.6797 48 -48s-21.6797 -48 -48 -48s-48 21.6797 -48 48s21.6797 48 48 48zM208 112c26.3203 0 48 -21.6797 48 -48s-21.6797 -48 -48 -48s-48 21.6797 -48 48s21.6797 48 48 48zM256 336h32v-48h48v-32h-48v-48h-32v48h-48v32h48v48zM208 80
c-9.02637 0 -16 -6.97363 -16 -16s6.97363 -16 16 -16s16 6.97363 16 16s-6.97363 16 -16 16zM352 80c-9.02637 0 -16 -6.97363 -16 -16s6.97363 -16 16 -16s16 6.97363 16 16s-6.97363 16 -16 16z" />
    <glyph glyph-name="folder-open-o" unicode="&#xf201;" 
d="M80 400h16h320h16v-16v-144v-6.5l-4.5 -5l-27.5 -27.5v-185v-16h-16h-80v-24v-19.5l-19.5 4l-192 40l-12.5 2.5v13v368v16zM226 368l34 -8.5l12 -3v-12.5v-137l27.5 -27.5l4.5 -5v-6.5v-136h64v176v6.5l4.5 5l27.5 27.5v121h-174zM112 363.5v-334.5l160 -33.5v20.5v16
v129l-27.5 27.5l-4.5 5v6.5v131.5z" />
    <glyph glyph-name="tachometer" unicode="&#xf32f;" 
d="M256 352c105.848 0 192 -86.1523 192 -192c0 -46.3311 -16.5908 -88.8164 -44 -122l-4.5 -6h-7.5h-272h-7.5l-4.5 6c-27.4092 33.1836 -44 75.6689 -44 122c0 105.848 86.1523 192 192 192zM256 320c-88.5527 0 -160 -71.4473 -160 -160
c0 -36.2734 12.7168 -69.1875 33 -96h254c20.2832 26.8125 33 59.7266 33 96c0 88.5527 -71.4473 160 -160 160zM256 304c8.83691 0 16 -7.16309 16 -16s-7.16309 -16 -16 -16s-16 7.16309 -16 16s7.16309 16 16 16zM192 287c8.83691 0 16 -7.16309 16 -16
s-7.16309 -16 -16 -16s-16 7.16309 -16 16s7.16309 16 16 16zM320 287c8.83691 0 16 -7.16309 16 -16s-7.16309 -16 -16 -16s-16 7.16309 -16 16s7.16309 16 16 16zM145 240c8.83691 0 16 -7.16309 16 -16s-7.16309 -16 -16 -16s-16 7.16309 -16 16s7.16309 16 16 16z
M362.5 239.5l16 -28l-90.5 -51.5v-0.5c-0.270508 -17.4395 -14.4961 -31.5 -32 -31.5c-17.6729 0 -32 14.3271 -32 32s14.3271 32 32 32c5.83984 0 11.2871 -1.76758 16 -4.5zM128 176c8.83691 0 16 -7.16309 16 -16s-7.16309 -16 -16 -16s-16 7.16309 -16 16
s7.16309 16 16 16zM384 176c8.83691 0 16 -7.16309 16 -16s-7.16309 -16 -16 -16s-16 7.16309 -16 16s7.16309 16 16 16zM145 112c8.83691 0 16 -7.16309 16 -16s-7.16309 -16 -16 -16s-16 7.16309 -16 16s7.16309 16 16 16zM367 112c8.83691 0 16 -7.16309 16 -16
s-7.16309 -16 -16 -16s-16 7.16309 -16 16s7.16309 16 16 16z" />
    <glyph glyph-name="creative-commons" unicode="&#xf1a9;" 
d="M256 384c105.85 0 192 -86.1504 192 -192s-86.1504 -192 -192 -192s-192 86.1504 -192 192s86.1504 192 192 192zM256 352c-88.5547 0 -160 -71.4453 -160 -160s71.4453 -160 160 -160s160 71.4453 160 160s-71.4453 160 -160 160zM192 256c26.3193 0 48 -21.6807 48 -48
h-32c0 9.04004 -6.95996 16 -16 16s-16 -6.95996 -16 -16v-32c0 -9.04004 6.95996 -16 16 -16s16 6.95996 16 16h32c0 -26.3193 -21.6807 -48 -48 -48s-48 21.6807 -48 48v32c0 26.3193 21.6807 48 48 48zM320 256c26.3193 0 48 -21.6807 48 -48h-32
c0 9.04004 -6.95996 16 -16 16s-16 -6.95996 -16 -16v-32c0 -9.04004 6.95996 -16 16 -16s16 6.95996 16 16h32c0 -26.3193 -21.6807 -48 -48 -48s-48 21.6807 -48 48v32c0 26.3193 21.6807 48 48 48z" />
    <glyph glyph-name="clipboard" unicode="&#xf18e;" 
d="M240 400c20.1445 0 34.4297 -14.2461 41.5 -32h38.5h16h48h16v-16v-336v-16h-16h-288h-16v16v336v16h16h48h16h38.5c7.07031 17.7539 21.3555 32 41.5 32zM240 368c-8.87305 0 -16 -7.12695 -16 -16v-16h-16h-32v-32h128v32h-32h-16v16c0 8.87305 -7.12695 16 -16 16z
M112 336v-304h256v304h-32v-48v-16h-16h-160h-16v16v48h-32z" />
    <glyph glyph-name="bar-chart" unicode="&#xf12e;" 
d="M336 384h16h96h16v-16v-352v-16h-16h-96h-16v16v352v16zM368 352v-320h64v320h-64zM48 288h16h96h16v-16v-256v-16h-16h-96h-16v16v256v16zM80 256v-224h64v224h-64zM192 192h16h96h16v-16v-160v-16h-16h-96h-16v16v160v16zM224 160v-128h64v128h-64z" />
    <glyph glyph-name="reply" unicode="&#xf2da;" 
d="M196.5 363.5l23 -23l-100.5 -100.5h217c61.6689 0 112 -50.3311 112 -112s-50.3311 -112 -112 -112v32c44.3789 0 80 35.6211 80 80s-35.6211 80 -80 80h-217l100.5 -100.5l-23 -23l-128 128l-11 11.5l11 11.5z" />
    <glyph glyph-name="hourglass-half" unicode="&#xf23f;" 
d="M112 384h288v-32h-32v-64c0 -40.6738 -21.8984 -76.3779 -54.5 -96c32.6016 -19.6221 54.5 -55.3262 54.5 -96v-64h32v-32h-288v32h32v64c0 40.6738 21.8984 76.3779 54.5 96c-32.6016 19.6221 -54.5 55.3262 -54.5 96v64h-32v32zM176 352v-64
c0 -44.3789 35.6211 -80 80 -80s80 35.6211 80 80v64h-160zM194.5 272h123c-7.15234 -27.5518 -31.708 -48 -61.5 -48s-54.3643 20.4482 -61.5 48zM256 176c-44.3789 0 -80 -35.6211 -80 -80v-64h16c0 35.3438 28.6562 64 64 64s64 -28.6562 64 -64h16v64
c0 44.3789 -35.6211 80 -80 80z" />
    <glyph glyph-name="graduation-cap" unicode="&#xf21e;" 
d="M256 339.5l5 -1.5l200 -67l45.5 -15l-45.5 -15l-45 -15v-82c0 -13.1123 -7.98828 -24.0029 -17.5 -31.5s-21.3125 -12.7705 -35.5 -17.5c-28.375 -9.45801 -65.791 -15 -107 -15s-78.625 5.54199 -107 15c-14.1875 4.72949 -25.9883 10.0029 -35.5 17.5
s-17.5 18.3877 -17.5 31.5v82l-32 10.5v-129c9.55078 -5.53711 16 -15.666 16 -27.5c0 -17.6729 -14.3271 -32 -32 -32s-32 14.3271 -32 32c0 11.834 6.44922 21.9629 16 27.5v140l-26.5 8.5l45.5 15l200 67zM256 306l-150 -50l150 -50l150 50zM128 215v-71
c0 -0.143555 -0.0605469 -2.01172 5 -6s14.1289 -9.04297 26 -13c23.7412 -7.91406 58.6729 -13 97 -13s73.2588 5.08594 97 13c11.8711 3.95703 20.9395 9.01172 26 13s5 5.85645 5 6v71l-123 -41l-5 -1.5l-5 1.5z" />
    <glyph glyph-name="info-circle" unicode="&#xf24b;" 
d="M256 400c114.686 0 208 -93.3145 208 -208s-93.3145 -208 -208 -208s-208 93.3145 -208 208s93.3145 208 208 208zM256 368c-97.3916 0 -176 -78.6084 -176 -176s78.6084 -176 176 -176s176 78.6084 176 176s-78.6084 176 -176 176zM240 288h32v-32h-32v32zM240 224h32
v-128h-32v128z" />
    <glyph glyph-name="exchange" unicode="&#xf1cc;" 
d="M419 475.5l96 -96l11.5 -11.5l-11.5 -11.5l-96 -96l-22.5 23l68.5 68.5h-337v32h337l-68.5 68.5zM221 251.5l22.5 -23l-68.5 -68.5h337v-32h-337l68.5 -68.5l-22.5 -23l-96 96l-11.5 11.5l11.5 11.5z" />
    <glyph glyph-name="hand-o-up" unicode="&#xf228;" 
d="M208 416c26.3193 0 48 -21.6807 48 -48v-57l122 -26.5c22.0342 -4.73145 38 -24.458 38 -47v-253.5v-16h-16h-224h-16v16v73.5l-107.5 108.5l-4.5 5v6.5c0 25.8584 19.6807 46.5254 42.5 46.5c21.3799 0 37.2334 -7.48633 47.5 -15
c6.41602 -4.69629 7.49902 -6.75 10 -10l12 -3v172c0 26.3193 21.6807 48 48 48zM208 384c-9.04004 0 -16 -6.95996 -16 -16v-193v-20.5l-20 5l-36 9.5l-6.5 2l-3 5.5s-1.35059 2.86523 -7 7s-14.5566 8.5 -29 8.5c-4.92188 0.00585938 -7.69238 -2.75977 -9 -9.5
l101 -102.5h201.5v157.5c0 7.63379 -5.03027 14.3955 -12.5 16l-135 28.5l-12.5 3v13v70c0 9.04004 -6.95996 16 -16 16zM192 48v-48h192v48h-192z" />
    <glyph glyph-name="pause" unicode="&#xf2ad;" 
d="M160 352h32v-320h-32v320zM320 352h32v-320h-32v320z" />
    <glyph glyph-name="paypal" unicode="&#xf2af;" 
d="M142.5 368h12.5h134c23.5508 0 48.7832 -8.56543 67 -27.5c9.8418 -10.2295 17.0928 -23.7109 20.5 -39.5c17.7256 -4.38672 34.8535 -13.6348 47.5 -29c15.5918 -18.9453 23.0635 -46.9492 16 -80c-13.4326 -62.9014 -66.2939 -102 -126.5 -102h-43l-16.5 -77l-2.5 -13
h-13h-78.5h-20l4.5 19.5l9.5 44.5h-58h-20l4.5 19.5l59 272zM168.5 336l-52.5 -240h45h0.5l16.5 77.5l2.5 12.5h13h56c47.0576 0 84.4326 27.5176 95 77c5.93164 27.7451 -0.492188 44.0586 -11.5 55.5s-28.3184 17.5 -44 17.5h-120.5zM209 312.5h12.5h38.5
c14.1953 0 27.5527 -6.61133 35.5 -17.5c7.7627 -10.6357 10.0273 -24.9766 6.5 -39c-0.0830078 -0.333008 0.0908203 -0.666992 0 -1h-0.5c-6.98633 -27.8184 -31.5684 -48.5 -60 -48.5h-36.5h-20l4.5 19.5l16.5 74zM234.5 280.5l-9.5 -42h16.5
c11.2168 0 26.4922 11.5449 29.5 24.5v0.5c1.71387 6.2998 0.356445 10.4561 -1.5 13s-4.49512 4 -9.5 4h-25.5zM377.5 266.5c-0.433594 -3.48535 -0.726562 -6.88477 -1.5 -10.5c-13.4326 -62.9014 -66.2939 -102 -126.5 -102h-43l-16.5 -77l-2.5 -13h-0.5l-7 -32h45.5
l16.5 77.5l2.5 12.5h13h56c47.0576 0 84.4326 27.5176 95 77c5.46484 25.5732 0.316406 41.1807 -9 52.5c-5.64062 6.85352 -13.5332 11.5371 -22 15z" />
    <glyph glyph-name="github-square" unicode="&#xf217;" 
d="M255.984 384c106.048 0 192.016 -85.9678 192.016 -192.016c0 -84.8008 -54.96 -156.704 -131.2 -182.16c-9.74414 -1.87207 -13.2002 4.0957 -13.2002 9.23145c0 6.30469 0.240234 27.0088 0.240234 52.6719c0 17.9043 -6.14355 29.6328 -13.04 35.5527
c42.7686 4.75195 87.6641 20.9756 87.6641 94.7354c0 20.96 -7.42383 38.0967 -19.7275 51.5205c1.9834 4.86426 8.57617 24.3838 -1.9043 50.8154c0 0 -16.0957 5.16797 -52.752 -19.6797c-15.3281 4.25586 -31.7598 6.38379 -48.0645 6.46387
c-16.3193 -0.0800781 -32.752 -2.20801 -48.0635 -6.46387c-36.6719 24.8477 -52.7998 19.6797 -52.7998 19.6797c-10.4482 -26.4316 -3.85645 -45.9512 -1.88867 -50.8154c-12.2715 -13.4238 -19.7598 -30.5605 -19.7598 -51.5205
c0 -73.584 44.8164 -90.0479 87.4561 -94.8955c-5.48828 -4.7998 -10.4482 -13.2637 -12.1924 -25.6641c-10.9277 -4.91211 -38.752 -13.3916 -55.8711 15.9521c0 0 -10.1445 18.4316 -29.4082 19.792c0 0 -18.752 0.255859 -1.3125 -11.6641
c0 0 12.5762 -5.9043 21.3125 -28.0801c0 0 11.2637 -37.3438 64.6719 -25.7441c0.0957031 -16.0156 0.255859 -28.0957 0.255859 -32.6562c0 -5.08789 -3.50391 -11.0078 -13.1045 -9.24805c-76.3037 25.3926 -131.312 97.3604 -131.312 182.177
c0 106.048 85.9678 192.016 191.984 192.016z" />
    <glyph glyph-name="search" unicode="&#xf2eb;" 
d="M304 400c88.1758 0 160 -71.8242 160 -160s-71.8242 -160 -160 -160c-38.3203 0 -73.4102 13.4229 -101 36l-127.5 -127.5l-23 23l127.5 127.5c-22.5771 27.5898 -36 62.6797 -36 101c0 88.1758 71.8242 160 160 160zM304 368c-70.8818 0 -128 -57.1182 -128 -128
s57.1182 -128 128 -128s128 57.1182 128 128s-57.1182 128 -128 128z" />
    <glyph glyph-name="flask" unicode="&#xf1fb;" 
d="M272 448c8.83691 0 16 -7.16309 16 -16s-7.16309 -16 -16 -16s-16 7.16309 -16 16s7.16309 16 16 16zM224 400c8.83691 0 16 -7.16309 16 -16h112v-32h-16v-122.5l98.5 -127c8.68359 -11.165 13.5 -24.8467 13.5 -39c0 -34.9639 -28.5361 -63.5 -63.5 -63.5h-257
c-34.9639 0 -63.5 28.5361 -63.5 63.5c0 14.1533 4.81641 27.835 13.5 39l98.5 127v122.5h-16v32h48c0 8.83691 7.16309 16 16 16zM208 352v-128v-5.5l-3.5 -4.5l-42 -54h187l-42 54l-3.5 4.5v5.5v128h-96zM272 288c8.83691 0 16 -7.16309 16 -16s-7.16309 -16 -16 -16
s-16 7.16309 -16 16s7.16309 16 16 16zM137.5 128l-35 -45c-4.30859 -5.53906 -6.5 -12.4688 -6.5 -19.5c0 -17.6768 13.8232 -31.5 31.5 -31.5h257c17.6768 0 31.5 13.8232 31.5 31.5c0 7.03125 -2.19141 13.9609 -6.5 19.5l-35 45h-237z" />
    <glyph glyph-name="pinterest-square" unicode="&#xf2bc;" 
d="M256 384c106.032 0 192 -85.9678 192 -192s-85.9678 -192 -192 -192c-19.792 0 -38.8799 3.00781 -56.8477 8.54395c7.83984 12.752 19.5352 33.6641 23.8721 50.3359c2.33594 8.99219 11.9678 45.6484 11.9678 45.6484c6.25586 -11.9365 24.5439 -22.0479 44 -22.0479
c57.9033 0 99.6318 53.2471 99.6318 119.424c0 63.4395 -51.7598 110.896 -118.368 110.896c-82.8643 0 -126.864 -55.6318 -126.864 -116.191c0 -28.1602 14.9922 -63.2168 38.9766 -74.3848c3.63184 -1.69531 5.58398 -0.959961 6.41602 2.56055
c0.639648 2.67188 3.87207 15.7119 5.32812 21.7754c0.463867 1.93652 0.239258 3.60059 -1.32812 5.50488c-7.93652 9.63184 -14.2881 27.3271 -14.2881 43.8232c0 42.3525 32.0635 83.3281 86.6875 83.3281c47.168 0 80.1924 -32.1436 80.1924 -78.1123
c0 -51.9355 -26.2236 -87.9199 -60.3516 -87.9199c-18.8486 0 -32.96 15.584 -28.4326 34.7041c5.42383 22.8164 15.9043 47.4404 15.9043 63.9199c0 14.7363 -7.9043 27.04 -24.2881 27.04c-19.2637 0 -34.7363 -19.9199 -34.7363 -46.624
c0 -16.9912 5.74414 -28.4961 5.74414 -28.4961s-19.0234 -80.4639 -22.5117 -95.4395c-3.87207 -16.5762 -2.35254 -39.8877 -0.671875 -55.0723c-71.4238 27.9678 -122.032 97.4404 -122.032 178.784c0 106.032 85.9678 192 192 192z" />
    <glyph glyph-name="fast-backward" unicode="&#xf1da;" 
d="M128 368h32v-168l7 5l208 144l25 17.5v-30.5v-288v-30.5l-25 17.5l-208 144l-7 5v-168h-32v352zM368 305.5l-164 -113.5l164 -113.5v227z" />
    <glyph glyph-name="code-fork" unicode="&#xf197;" 
d="M64 368h16h352h16v-16v-320v-16h-16h-352h-16v16v320v16zM96 336v-32h320v32h-320zM96 272v-224h320v224h-320zM256 240h32l-32 -160h-32zM179 233.5l26 -19l-41 -54.5l41 -54.5l-26 -19l-48 64l-7 9.5l7 9.5zM333 233.5l48 -64l7 -9.5l-7 -9.5l-48 -64l-26 19l41 54.5
l-41 54.5z" />
    <glyph glyph-name="tasks" unicode="&#xf332;" 
d="M80 368h16h320h16v-16v-64v-16h-16h-320h-16v16v64v16zM176 336v-32h224v32h-224zM80 240h16h320h16v-16v-64v-16h-16h-320h-16v16v64v16zM336 208v-32h64v32h-64zM80 112h16h320h16v-16v-64v-16h-16h-320h-16v16v64v16zM256 80v-32h144v32h-144z" />
    <glyph glyph-name="firefox" unicode="&#xf1f6;" 
d="M429.056 246.016c2 -6.27148 2.94434 -14.416 2.94434 -23.8721c0 -80.416 -40.4316 -192.655 -176.032 -192.655c-110.688 0 -173.359 91.3281 -173.359 162.704c0 19.2959 4.52734 33.4072 8.25586 42.7998l-10.2881 -8.38379
c-0.368164 1.2959 -0.576172 3.79199 -0.576172 5.64746c0 17.2324 19.2158 41.4561 19.9043 42.3525c-0.432617 32.0957 5.71191 54.3037 18.3994 66.7197c2.17676 -14.416 5.98438 -24.9277 11.2959 -31.6963c8.38477 4.16016 42.1924 1.87207 49.7129 -4.49609
c14.0156 13.4404 29.7598 21.2002 47.168 23.376c-9.36035 -6.30371 -23.8887 -18.4795 -27.1045 -39.04c10.9121 -6.30371 13.0557 -22.6875 41.792 -20.2881c1.85645 -1.13574 2.78418 -2.38379 2.78418 -3.77539c0 -1.39258 -0.847656 -2.81641 -1.64844 -3.26465
c-0.591797 -3.21582 -2.31934 -5.63184 -5.31152 -7.21582c-9.9043 -5.2793 -23.4561 -17.9033 -23.4561 -17.9834c5.69629 -9.68066 7.77637 -19.3125 6.20801 -28.3359c-9.45605 2.73535 -26.9277 5.19922 -25.1357 5.04004
c-6.46484 -0.992188 -10.1768 -5.96875 -10.1768 -13.6006c0 0 18.832 -29.0078 39.9199 -29.0078c16.9121 0 20.4961 11.2959 37.1045 11.2959c14.1758 0 27.4082 -10.7363 27.4082 -16.9121c0 -2.71973 -2.1123 -4.6875 -6.22461 -5.24805
c-1.40723 0.65625 -2.84766 0.992188 -4.33594 0.992188c-11.3281 0 -23.5518 -24.1123 -64.6074 -24.1123c-2.56055 0 -5.16797 0.112305 -7.80859 0.335938c10.8965 -10.96 32.5762 -27.8721 65.9844 -27.8721c23.792 0 51.168 17.585 70.1279 47.6641
c0.767578 -7.3916 -0.576172 -16.7354 -3.8877 -28.1914c17.4873 18.7363 23.8877 47.4883 19.1357 86.3682c3.42383 -2.65625 7.23242 -10.1924 11.376 -22.8008c6.04785 18.9121 5.2959 42.8643 -2.17578 71.8721c6.06348 -1.80762 10.7998 -5.47168 14.3516 -11.0234
c2.67188 26.4482 -20.4795 49.3438 -69.2158 68.5596c6.81641 2.64062 14.4961 3.21582 23.0557 1.66406c-1.9834 4.91211 -16.9121 15.5684 -40.1113 22.1123c2.43164 -0.0800781 4.73535 -0.255859 7.10352 -0.400391c-14.6719 4.78418 -30.2715 7.45605 -46.5117 7.45605
c108.416 12.416 140.656 -46 147.344 -69.6318c-0.0957031 7.63184 -1.80762 18.1445 -5.24805 31.6641c7.37598 -9.79199 13.248 -20.8164 17.5684 -33.1836c0.0800781 -0.160156 0.160156 -0.320312 0.160156 -0.400391
c5.55176 -15.8398 8.52734 -33.8398 9.04004 -53.9678c0 0 4.28809 9.71191 5.07129 18.7354z" />
    <glyph glyph-name="apple" unicode="&#xf114;" 
d="M333.5 416h15l1 -15c1.50684 -26.3281 -7.94922 -51.9189 -25 -71h-0.5c-0.155273 -0.172852 -0.342773 -0.328125 -0.5 -0.5c-0.0654297 -0.0859375 0.0654297 -0.414062 0 -0.5c-3.15137 -4.12109 -8.12891 -6.39355 -12 -10c6.8877 1.33887 12.2871 4 20 4
c16.582 -0.0195312 58.3779 -5.31641 84.5 -45.5l9 -13.5l-13.5 -8.5c-1.7041 -1.07715 -1.50781 -0.864258 -2.5 -1.5s-2.33594 -1.24805 -4 -2.5c-3.32715 -2.50293 -7.71973 -6.54004 -12 -11.5c-8.56055 -9.91992 -16.5 -23.8115 -16.5 -44.5
c0 -21.3623 8.52637 -35.3037 18.5 -45.5s21.1699 -15.7305 24 -17l12 -5.5l-3 -13c-0.932617 -4.00684 -1.61426 -5.00879 -3 -8.5s-3.12793 -7.81836 -5.5 -13c-4.74316 -10.3623 -11.2275 -23.3047 -19.5 -36.5s-18.165 -26.8496 -30 -37.5s-26.3896 -19 -43.5 -19
c-15.8301 0 -27.749 5.14551 -36.5 9s-14.5479 7 -26 7c-12.7178 0 -19.3633 -3.21875 -28 -7s-20.127 -9 -35.5 -9c-15.374 0 -28.9893 7.42285 -42 18s-25.5 24.7725 -36.5 42c-22 34.4561 -38.5 80.4414 -38.5 129.5c0 75.8418 48.2852 133.5 112 133.5
c16.2334 0 29.958 -5.02734 41 -9.5c2.2998 -0.931641 2.42383 -0.710938 4.5 -1.5c-4.28125 28.5488 9.39453 53.3398 22 69v0.5c17.7656 20.8818 44.2314 34.5 70.5 34.5zM314.5 379c-9.82324 -4.00684 -19.4941 -9.97656 -26.5 -18
c-0.149414 -0.170898 -0.352539 -0.328125 -0.5 -0.5c-6.3418 -8.00391 -10.8916 -18.541 -13.5 -29c9.44824 3.61035 18.8633 9.71973 25 18l0.5 0.5l0.5 0.5c7.21973 7.84961 11.749 17.958 14.5 28.5zM195.5 291c-44.7969 0 -80 -38.4307 -80 -101.5
c0 -41.709 14.5723 -82.3555 33.5 -112c9.46387 -14.8223 19.9209 -26.7129 29.5 -34.5s18.0615 -11 22 -11c8.25879 0 13.1406 2.40137 22.5 6.5s22.8379 9.5 41 9.5c17.2998 0 29.8623 -5.47461 39 -9.5s14.418 -6.5 23.5 -6.5c6.02539 0 13.5859 3.42871 22 11
s17.2246 18.8955 24.5 30.5s13.21 23.6279 17.5 33c1.11133 2.42871 1.64062 3.98633 2.5 6c-6.74609 3.88867 -12.1855 5.98926 -21 15c-14.2139 14.5312 -27.5 37.4746 -27.5 68c0 29.3604 12.292 51.3525 24.5 65.5c3.23633 3.75098 5.96094 5.75781 9 8.5
c-17.4619 16.1924 -38.1182 21.4902 -46.5 21.5c-12.585 0 -25.4092 -3.36035 -37.5 -7.5s-22.3936 -9.5 -36 -9.5c-13.667 0 -23.25 5.34863 -33.5 9.5s-20.0811 7.5 -29 7.5z" />
    <glyph glyph-name="gamepad" unicode="&#xf209;" 
d="M256 336c102.131 0 191.5 -33 191.5 -33l9.5 -3.5l1 -9.5l21.5 -164c5.83984 -45.3613 -26.6426 -87.6602 -72 -93.5c-42.2266 -5.43945 -80.0859 23.0449 -90 63.5h-123c-9.89941 -40.459 -47.7617 -68.9385 -90 -63.5c-45.3574 5.83984 -77.8398 48.1387 -72 93.5
l21.5 164l1 9.5l9.5 3.5s89.3691 33 191.5 33zM256 304c-87.7686 0 -160.112 -24.3779 -172 -28.5l-19.5 -154c-3.63184 -28.207 15.7891 -53.3682 44 -57c28.207 -3.63184 53.8809 15.7939 57.5 44l0.5 5.5l2 14h14h147h14l2 -14l0.5 -5.5
c3.63184 -28.2109 29.3135 -47.6309 57.5 -44c28.2109 3.63184 47.6318 28.793 44 57l-19.5 154c-11.8926 4.12207 -84.2314 28.5 -172 28.5zM144 256h32v-32h32v-32h-32v-32h-32v32h-32v32h32v32zM352 256c8.83691 0 16 -7.16309 16 -16s-7.16309 -16 -16 -16
s-16 7.16309 -16 16s7.16309 16 16 16zM320 224c8.83691 0 16 -7.16309 16 -16s-7.16309 -16 -16 -16s-16 7.16309 -16 16s7.16309 16 16 16zM384 224c8.83691 0 16 -7.16309 16 -16s-7.16309 -16 -16 -16s-16 7.16309 -16 16s7.16309 16 16 16zM352 192
c8.83691 0 16 -7.16309 16 -16s-7.16309 -16 -16 -16s-16 7.16309 -16 16s7.16309 16 16 16z" />
    <glyph glyph-name="cc-stripe" unicode="&#xf176;" 
d="M80 352h352c26.3193 0 48 -21.6807 48 -48v-224c0 -26.3193 -21.6807 -48 -48 -48h-352c-26.3193 0 -48 21.6807 -48 48v224c0 26.3193 21.6807 48 48 48zM80 320c-9.04004 0 -16 -6.95996 -16 -16v-224c0 -9.04004 6.95996 -16 16 -16h352c9.04004 0 16 6.95996 16 16
v224c0 9.04004 -6.95996 16 -16 16h-352zM264 265c7.47168 0 13.5 -5.91602 13.5 -13.5c0 -7.48828 -6.01172 -13.5 -13.5 -13.5c-7.58398 0 -13.5 6.01172 -13.5 13.5c0 7.58398 5.91602 13.5 13.5 13.5zM177 253v-23h16.5l-3 -19.5h-13.5v-33.5
c0 -5.93555 2.41211 -8.5 7.5 -8.5c2.40039 0 5.94824 0.583984 7.5 1v-20c-2.7998 -0.736328 -6.84375 -2 -13.5 -2c-8.62402 0 -14.7441 1.57617 -19 5c-5.08789 4.14355 -7.5 10.7402 -7.5 20.5v37.5h-11l3 18l8 1.5l3 19.5zM110.5 231.5
c12.3682 0 21.1318 -3.41992 25.5 -5.5l-3 -19.5c-5.50391 2.7041 -13.708 6 -21.5 6c-4.27246 0 -6.5 -2.08789 -6.5 -5c0 -3.42383 4.41602 -5.2002 12 -8c14.2402 -5.08789 23.0156 -11.0518 23 -25.5c0 -8.71973 -3.17578 -15.9238 -9 -20.5
c-5.18359 -4.16016 -12.752 -6 -22 -6c-11.6318 0 -22.9678 3.57617 -29 7l3 19.5c7.05566 -4.16016 17.9561 -7.5 24.5 -7.5c5.2959 0 8 2.07617 8 5.5c0 3.53613 -2.95996 5.78418 -12 9c-14.0322 5.08789 -22.5 10.8721 -22.5 25c0 7.79199 2.5918 14.5361 8 19
c5.2002 4.25586 12.7637 6.5 21.5 6.5zM331.5 231.5c8.0957 0 14.4238 -3.08008 19 -9c5.18359 -6.65625 7.48438 -17.2881 7.5 -31c0 -15.4883 -3.54004 -26.916 -10.5 -34.5c-7.28027 -7.8877 -16.5518 -9.5 -23 -9.5c-3.63184 0 -7.54785 0.251953 -11.5 1.5v-25.5
l-26 -4.5v111h23l1 -8.5c6.12793 6.54395 13.0117 10 20.5 10zM399 231.5c10.7041 0 18.8838 -3.71973 24.5 -11c5.51953 -7.16797 8.5 -17.6201 8.5 -30.5c0 -1.87207 -0.356445 -7.76758 -0.5 -9h-42.5c0.52832 -5.2959 1.7959 -8.71191 4.5 -11
c2.49609 -2.17578 6.00781 -3.5 11 -3.5c8.32031 0 15.6641 2.07617 22 5.5l3 -18c-6.43164 -4.27246 -16.4922 -6.5 -27.5 -6.5c-11.9355 0 -21.5518 2.75977 -28 9c-7.16797 6.95996 -10.5 17.9561 -10.5 32.5c0 25.9844 13.5801 42.5 35.5 42.5zM240 231
c1.56836 0 3.20801 -0.0839844 5 -0.5v-24c-1.77637 0.303711 -3.15625 0.5 -4.5 0.5c-6.24023 0 -10.7842 -1.54785 -14 -5.5v-52.5h-26v81h22.5l1.5 -10c2.28809 6.84766 8.21973 11 15.5 11zM251 230h26v-81h-26v81zM398.5 214c-5.91992 0 -8.78027 -5.46387 -9.5 -17h19
c-0.416016 11.4404 -3.67578 17 -9.5 17zM322.5 211.5c-1.44043 0 -5.13184 -0.423828 -9.5 -5v-38.5c2.08008 -1.04004 4.4082 -1.5 7 -1.5c3.74414 0 6.91992 2.04785 9 6c2.38379 4.16016 3.51562 10.6123 3.5 18.5c0 13.8076 -3.45605 20.5 -10 20.5z" />
    <glyph glyph-name="quote-left" unicode="&#xf2cd;" 
d="M160 320v-32c-35.5264 0 -64 -28.4736 -64 -64h112h16v-16v-128v-16h-16h-128h-16v16v144c0 52.8262 43.1738 96 96 96zM384 320v-32c-35.5264 0 -64 -28.4736 -64 -64h112h16v-16v-128v-16h-16h-128h-16v16v144c0 52.8262 43.1738 96 96 96zM96 192v-96h96v96h-96z
M320 192v-96h96v96h-96z" />
    <glyph glyph-name="user-times" unicode="&#xf368;" 
d="M192 416c61.666 0 112 -50.334 112 -112c0 -38.541 -19.6982 -72.834 -49.5 -93c7.77832 -3.33008 15.4209 -7.05176 22.5 -11.5c21.0918 15.3047 47.0459 24.5 75 24.5c70.5029 0 128 -57.4971 128 -128s-57.4971 -128 -128 -128s-128 57.4971 -128 128
c0 30.3516 10.7383 58.5186 28.5 80.5c-18.0283 9.77441 -38.4834 15.5 -60.5 15.5c-70.8906 0 -128 -57.1094 -128 -128h-32c0 65.8994 40.4258 122.522 97.5 147c-29.8018 20.166 -49.5 54.459 -49.5 93c0 61.666 50.334 112 112 112zM192 384
c-44.3721 0 -80 -35.6279 -80 -80s35.6279 -80 80 -80s80 35.6279 80 80s-35.6279 80 -80 80zM352 192c-53.209 0 -96 -42.791 -96 -96s42.791 -96 96 -96s96 42.791 96 96s-42.791 96 -96 96zM315.5 155.5l36.5 -36.5l36.5 36.5l23 -23l-36.5 -36.5l36.5 -36.5l-23 -23
l-36.5 36.5l-36.5 -36.5l-23 23l36.5 36.5l-36.5 36.5z" />
    <glyph glyph-name="plus-square-o" unicode="&#xf2c5;" 
d="M80 368h16h320h16v-16v-320v-16h-16h-320h-16v16v320v16zM112 336v-288h288v288h-288zM240 272h32v-64h64v-32h-64v-64h-32v64h-64v32h64v64z" />
    <glyph glyph-name="eye-slash" unicode="&#xf1d5;" 
d="M59.5 411.5l108 -108c26.96 9.79395 56.6123 16.5 88.5 16.5c134.32 0 231.904 -112.7 236 -117.5l10 -11.5l-10.5 -10.5c-3.08203 -3.06836 -51.9453 -50.1533 -117.5 -83.5l101.5 -101.5l-23 -23l-109.5 110l-29.5 29.5l-49 49l-55.5 55.5l-49 49l-24.5 24.5l-99 98.5z
M256 288c-22.2197 0 -43.1582 -4.06543 -63 -10l33 -33c8.21191 6.6377 18.6328 11 30 11c26.4639 0 48 -21.5361 48 -48c0 -11.3672 -4.3623 -21.7881 -11 -30l45.5 -45.5c18.3018 19.9766 29.5 46.4619 29.5 75.5c0 20.7998 -6.16797 40.9004 -17 58.5
c-28.416 12.6084 -60.376 21.5 -95 21.5zM106 274l41 -41c-1.93555 -8.20801 -3 -16.4238 -3 -25c0 -57.04 42.876 -104.632 99.5 -111l1.5 -0.5c7.45605 -0.624023 14.5283 -0.624023 22 0l2 0.5c4.17578 0.463867 8.5 1.08789 12.5 2l27.5 -27.5
c-12.4482 -3.16797 -25.2324 -5.49219 -38 -6.5h-1c-4.63965 -0.400391 -9.36035 -1 -14 -1s-9.36035 0.599609 -14 1h-1c-111.424 8.87988 -215.924 110.94 -220.5 115.5l-10.5 10.5l10 11.5c2.30371 2.71973 34.1924 39.6602 86 71.5zM116.5 242.5
c-28.4004 -18.3359 -50.0801 -37.6123 -62 -49.5c14.624 -12.9756 42.5479 -35.8076 76.5 -56c-12 21.0557 -19 45.208 -19 71c0 11.792 1.71582 23.2363 4.5 34.5zM395.5 242.5c2.76758 -11.2324 4.5 -22.7402 4.5 -34.5c0 -25.8242 -7 -49.9277 -19 -71
c33.9678 20.1924 61.376 42.5244 76 55.5c-11.9199 11.8721 -33.1484 31.6797 -61.5 50zM256 224c-2.60156 0 -4.82812 -0.895508 -7 -2l21 -21c1.10352 2.17188 2 4.40332 2 7c0 8.81641 -7.16797 16 -16 16z" />
    <glyph glyph-name="trello" unicode="&#xf34f;" 
d="M80 368h16h320h16v-16v-320v-16h-16h-320h-16v16v320v16zM112 336v-224h128v224h-128zM272 336v-144h128v144h-128z" />
    <glyph glyph-name="dribbble" unicode="&#xf1be;" 
d="M256 384c105.85 0 192 -86.1504 192 -192s-86.1504 -192 -192 -192s-192 86.1504 -192 192s86.1504 192 192 192zM256 352c-12.5391 0 -24.8008 -1.28906 -36.5 -4c14.7021 -19.7217 36.8623 -51.1943 59.5 -93c33.418 12.3096 55.3076 28.2441 69 41.5
c6.44922 6.24316 10.4824 11.3262 13.5 15.5c-28.1562 24.7373 -64.9561 40 -105.5 40zM188 337c-44.6455 -20.8594 -77.8984 -61.5801 -88.5 -111c23.7627 0.0429688 83.4307 2.22168 148.5 19.5c-23.5127 42.4639 -46.8926 74.3242 -60 91.5zM383.5 288.5
c-3.7041 -4.67676 -7.97949 -9.65527 -13.5 -15c-16.1621 -15.6475 -40.6094 -33.748 -76.5 -47.5c4.16895 -8.56445 8.50879 -17.3652 12.5 -26.5c17.2363 2.05371 33.2998 3.08496 47.5 3c27.2354 -0.162109 48.2266 -3.33105 62.5 -6.5
c-0.84668 34.7539 -12.9795 66.6797 -32.5 92.5zM262.5 216.5c-76.1035 -21.2598 -144.889 -22.7188 -166.5 -22.5c-0.0078125 -0.666016 0 -1.33203 0 -2c0 -40.0293 14.8223 -76.4814 39 -104.5c20.9795 29.0459 70.1475 87.0654 138.5 106
c-3.57422 7.91504 -7.29492 15.5449 -11 23zM353.5 171c-10.4346 -0.0117188 -22.4014 -0.759766 -35 -2c12.6494 -33.376 23.0977 -69.7373 29.5 -108c33.9824 23.8408 58.0518 60.3896 65.5 103c-11.668 2.97754 -31.4336 7.03125 -60 7zM286 163.5
c-62.7256 -16.1064 -111.08 -75.9912 -127.5 -98.5c26.9531 -20.6699 60.8047 -33 97.5 -33c22.1387 0 43.3486 4.41797 62.5 12.5c-6.07422 42.4414 -18.1523 82.4707 -32.5 119z" />
    <glyph glyph-name="user-secret" unicode="&#xf367;" 
d="M209 384c18.7646 0 31.6562 -8 47 -8c7.67188 0 15.3887 1.58691 23 3.5s14.6602 4.5 24 4.5c13.7686 0 25.9297 -6.86914 34.5 -16s14.585 -20.5898 20 -33c8.40039 -19.249 15.0303 -41.1514 21 -62c17.3799 -5.0625 32.1172 -11.3604 44 -19
c13.8926 -8.93164 25.5 -21.2822 25.5 -38c0 -14.5264 -8.85645 -26.1172 -20 -34.5c-9.48633 -7.13672 -21.1904 -13.0537 -35 -18c-0.786133 -3.71191 -2.02051 -7.45996 -3.5 -11c13.4971 -7.63086 34.8486 -22.3535 55.5 -50.5l9.5 -13.5l-13.5 -9.5l-52.5 -36l10 -20
l11.5 -23h-26h-256h-26l11.5 23l10 20l-52.5 36l-13.5 9.5l9.5 13.5c20.6514 28.1465 42.0029 42.8691 55.5 50.5c-1.48047 3.53809 -2.7168 7.28809 -3.5 11c-13.8096 4.94629 -25.5137 10.8633 -35 18c-11.1436 8.38281 -20 19.9736 -20 34.5
c0 16.6865 11.6436 29.0732 25.5 38c11.8516 7.63574 26.6328 13.9365 44 19c5.43945 20.1426 11.4746 41.6348 20 61c5.54004 12.583 11.8398 24.2012 20.5 33.5s21.0195 16.5 35 16.5zM209 352c-3.49219 0 -6.74414 -1.39355 -11.5 -6.5s-9.79785 -13.8193 -14.5 -24.5
c-7.81348 -17.748 -14.2412 -40.2695 -20 -61.5l0.00195312 -0.25l-0.00195312 -0.25c-0.100586 -2.06055 -0.99707 -5.19727 -2 -7c-0.134766 -0.140625 -0.359375 -0.365234 -0.5 -0.5c-0.0400391 -0.149414 0.0400391 -0.350586 0 -0.5l0.00195312 -0.25
l-0.00195312 -0.25c0.282227 -0.0810547 0.746094 0.170898 2 -0.5c4.09277 -2.18945 12.3223 -4.92188 22.5 -6.5c20.3564 -3.15625 48.1152 -3.5 71 -3.5c23 0 50.6904 -0.0341797 71 3c10.1553 1.51758 18.4844 4.32617 22.5 6.5
c2.35352 1.27441 1.48535 0.532227 1.5 0.5c-7.19727 24.9717 -13.8184 52.1045 -22.5 72c-4.58691 10.5107 -9.9541 19.1572 -14.5 24s-7.29688 6 -11 6c-1.37988 0 -7.69922 -1.41309 -16 -3.5s-18.9922 -4.5 -31 -4.5c-24.0156 0 -43.7168 8 -47 8zM131 238.5
c-10.0947 -3.6748 -18.6973 -7.76172 -24.5 -11.5c-9.25977 -5.96484 -10.5 -9.94336 -10.5 -11c0 -0.9375 0.831055 -3.9834 7.5 -9s18.1953 -10.7891 33 -15.5c29.6094 -9.4209 72.2754 -15.5 119.5 -15.5s89.8906 6.0791 119.5 15.5
c14.8047 4.71094 26.3311 10.4834 33 15.5s7.5 8.0625 7.5 9c0 1.05859 -1.7041 5.52344 -11 11.5c-5.80957 3.73535 -14.0986 7.48242 -24 11c-3.58789 -7.625 -9.92969 -13.9424 -16.5 -17.5c-9.79688 -5.30469 -20.9053 -7.69336 -33 -9.5
c-24.1904 -3.61328 -52.5 -3.5 -75.5 -3.5c-23.1152 0 -51.3564 0.256836 -75.5 4c-12.0723 1.87207 -23.2803 4.29883 -33 9.5c-6.51855 3.48828 -12.8955 9.5 -16.5 17zM172.5 151l1.5 -10c5.25098 -26.4082 16.8174 -50.3428 31.5 -67s31.6865 -25.7305 50.5 -26
c18.3252 -0.257812 35.7051 8.69434 50.5 25.5s26.5732 41.2139 31.5 67.5l1.5 10c-5.28125 -0.866211 -10.459 -2.30273 -16 -3c-2.0752 -14.0322 -13.0137 -26.4355 -30.5 -27.5c-13.4697 -0.825195 -28.6621 5.54395 -30 23.5c-2.37305 -0.0283203 -4.60547 0 -7 0
s-4.62695 -0.0283203 -7 0c-1.33789 -17.9561 -16.5303 -24.3252 -30 -23.5c-17.4863 1.06445 -28.4248 13.4678 -30.5 27.5c-5.54102 0.697266 -10.7188 2.13379 -16 3zM368 128c-0.529297 -0.303711 -0.958008 -0.708984 -1.5 -1
c-6.58496 -28.2842 -18.3965 -54.5049 -36 -74.5c-6.85352 -7.78516 -14.6465 -14.8467 -23 -20.5h50.5l-4.5 9l-6 12.5l11.5 7.5l48.5 33.5c-17.918 19.7412 -33.542 30.0186 -39.5 33.5zM143.5 127.5c-6.65234 -4.00391 -22.0391 -14.3135 -39 -33l48.5 -33.5l11.5 -7.5
l-6 -12.5l-4.5 -9h52c-8.93457 5.81543 -17.3105 12.8438 -24.5 21c-17.3594 19.6934 -29.1514 45.5801 -36 73.5c-0.655273 0.345703 -1.36523 0.628906 -2 1z" />
    <glyph glyph-name="cloud" unicode="&#xf192;" 
d="M256 368c39.2217 0 73.0146 -20.8271 93 -51.5c6.2666 1.41797 12.082 3.5 19 3.5c52.8262 0 96 -43.1738 96 -96c27.6748 -16.876 48 -45.3574 48 -80c0 -52.8262 -43.1738 -96 -96 -96h-320c-52.8262 0 -96 43.1738 -96 96s43.1738 96 96 96
c3.37402 0 6.29688 -0.642578 9.5 -1c8.50098 19.0605 23.0186 33.3262 42.5 41c11.1719 50.0664 54.71 88 108 88zM256 336c-40.3535 0 -73.3037 -29.3818 -79 -68l-1.5 -11l-10.5 -2.5c-17.7607 -4.23633 -32.0371 -18.1738 -36 -36l-3 -15.5l-16 3.5
c-4.76758 1.07422 -9.34277 1.5 -14 1.5c-35.5264 0 -64 -28.4736 -64 -64s28.4736 -64 64 -64h320c35.5264 0 64 28.4736 64 64c0 26.5869 -16.1465 49.2422 -39 59l-10.5 4.5l1 11.5c0.280273 3.75195 0.5 5.14355 0.5 5c0 35.5264 -28.4736 64 -64 64
c-7.11035 0 -14.0068 -1.54297 -21 -4l-13.5 -4.5l-6 12.5c-13.1914 26.0889 -40.168 44 -71.5 44z" />
    <glyph glyph-name="usd" unicode="&#xf363;" 
d="M240 400h32v-33.5c45.3545 -7.59766 80 -47.0635 80 -94.5v-16h-32v16c0 35.5264 -28.4736 64 -64 64c-35.4375 0 -64 -28.915 -64 -64c0 -19.5029 6.70898 -29.6875 19 -39.5s30.9951 -17.5 51 -25.5s41.29 -16.3047 59 -30.5s31 -36.0127 31 -64.5
c0 -46.8037 -34.5264 -86.793 -80 -94.5v-33.5h-32v33.5c-45.3545 7.59766 -80 47.0635 -80 94.5v16h32v-16c0 -35.5264 28.4736 -64 64 -64c35.3135 0 64 29.5303 64 64c0 19.6172 -6.70996 29.6484 -19 39.5s-31.0049 18.0039 -51 26s-41.291 15.8623 -59 30
s-31 36.0918 -31 64.5c0 47.1709 34.5957 86.8564 80 94.5v33.5z" />
    <glyph glyph-name="eye" unicode="&#xf1d4;" 
d="M256 320c133.369 0 236 -117.5 236 -117.5l9.5 -10.5l-9.5 -10.5s-93.5898 -106.681 -218 -116.5c-5.9502 -0.753906 -11.8506 -1 -18 -1s-12.0498 0.246094 -18 1c-124.41 9.81934 -218 116.5 -218 116.5l-9.5 10.5l9.5 10.5s102.631 117.5 236 117.5zM256 288
c-35.6553 0 -68.5195 -9.88477 -97 -23h0.5c-9.88672 -16.707 -15.5 -36.1201 -15.5 -57c0 -57.8213 43.373 -105.331 99.5 -111.5c4.14258 -0.256836 8.27832 -0.5 12.5 -0.5c3.88477 0 7.68262 0.282227 11.5 0.5c0.332031 0.0332031 0.668945 -0.0361328 1 0
c56.127 6.16895 99.5 53.6787 99.5 111.5c0 21.1953 -5.83594 40.6416 -16 57.5c-28.2471 12.875 -60.7666 22.5 -96 22.5zM256 256c26.5098 0 48 -21.4902 48 -48s-21.4902 -48 -48 -48s-48 21.4902 -48 48s21.4902 48 48 48zM116 241
c-30.3486 -20.249 -51.8076 -41.1328 -59.5 -49c9.17188 -9.37988 37.1875 -37.2168 77.5 -60.5c-13.9736 22.1816 -22 48.4316 -22 76.5c0 11.4209 1.47852 22.2773 4 33zM396 241c2.50586 -10.6455 4 -21.5762 4 -33c0 -28.0684 -8.02637 -54.3184 -22 -76.5
c40.3125 23.2832 68.3281 51.1201 77.5 60.5c-7.69238 7.86719 -29.1514 28.751 -59.5 49z" />
    <glyph glyph-name="certificate" unicode="&#xf178;" 
d="M256 400c9.9834 0 19.9678 -3.40527 28.5 -9.5l26.5 -18.5l30 -4h0.5c21.0322 -2.55371 37.6377 -19.5615 40.5 -40.5c0.0527344 -0.386719 0.457031 -0.611328 0.5 -1h-0.5l6 -30l18.5 -26.5c12.1895 -17.0645 11.6758 -39.6182 0.5 -57.5v-0.5l-0.5 -0.5l-18.5 -26.5
l-4 -30l50 -76l16.5 -24.5h-29.5h-47l-18.5 -43l-11.5 -27.5l-16.5 25l-50.5 76c-13.0947 -6.06348 -28.457 -5.58496 -42 0l-50.5 -76l-16.5 -25l-11.5 27.5l-18.5 43h-47h-29.5l16.5 24.5l51.5 78.5l-5 27.5l-19 26.5c-12.1895 17.0645 -11.6758 40.1182 -0.5 58v0.5
l0.5 0.5l18.5 24l4 31v0.5l0.5 0.5c4.53418 20.4023 20.5977 36.4658 41 41l0.5 0.5h0.5l30.5 4l26.5 18.5c8.53223 6.09473 18.5166 9.5 28.5 9.5zM256 367.5c-3.66602 0 -7.33203 -1.09473 -10 -3l-28.5 -20.5l-3.5 -2.5l-4 -0.5l-33.5 -4.5
c-0.24707 -0.0546875 -0.256836 -0.4375 -0.5 -0.5c-7.79004 -2.00488 -13.9951 -8.20996 -16 -16c-0.0625 -0.243164 -0.445312 -0.25293 -0.5 -0.5l-4.5 -33.5l-0.5 -4.5l-2.5 -3l-20 -26c-4.82422 -7.71875 -4.31055 -17.165 -0.5 -22.5l20.5 -28.5l2.5 -3l0.5 -4
l6.5 -36.5v-0.5v-0.5c0.246094 -2.21191 1.00586 -4.25488 2 -6c2.22363 -3.90332 6.05273 -6.4502 11 -7h0.5l35 -5l4.5 -0.5l3 -2.5l26 -20c7.71875 -4.82422 17.165 -4.31055 22.5 -0.5l28.5 20.5l3 2.5l4 0.5l36.5 6.5h0.5h0.5c4.00195 0.444336 7.19238 2.27246 9.5 5
v0.5l1 0.5c1.33691 1.95508 2.20703 4.36523 2.5 7v0.5l5 35l0.5 4l2.5 3.5l20 28c4.82422 7.71875 4.31055 16.665 0.5 22l-20.5 28.5l-2.5 3l-0.5 3.5l-6.5 35.5v0.5v0.5c-0.795898 7.16016 -5.83984 12.2041 -13 13h-0.5l-35 5l-4 0.5l-3.5 2.5l-28.5 20.5
c-2.66797 1.90527 -6.33398 3 -10 3zM366.5 124c-6.54395 -5.16504 -14.4023 -8.82422 -23 -10c-0.386719 -0.0527344 -0.611328 -0.457031 -1 -0.5v0.5l-31.5 -5.5l-7.5 -5.5l34 -52l11 25.5l4 10h10.5h28zM145.5 123.5l-24.5 -37h28h10.5l4 -10l11 -25.5l34 51.5l-7 5.5
l-30.5 4c-0.157227 0.0175781 -0.342773 -0.0195312 -0.5 0c-9.5166 1.15527 -18.1592 5.40039 -25 11.5z" />
    <glyph glyph-name="500px" unicode="&#xf100;" 
d="M419.216 242.704c53.2002 0 76.1758 -43.6006 76.1924 -80.9766c0 -37.376 -25.792 -81.7275 -76.1758 -81.7275c-50.3848 0 -83.4248 48.7676 -86.6562 48.7676c-3.23242 0 -31.2324 -48.7676 -86.8486 -48.7676c-47.9512 0 -70.5273 44.3516 -70.5273 48.7676
c0 -5.23145 -18.752 -48.7676 -77.1846 -48.7676c-71.7275 0 -81.4072 56.4004 -81.4072 68.4639h45.1357c0 -13.6641 13.2959 -33.3604 36.2715 -33.3604c22.96 0 39.4883 23.3125 39.4883 44.6084s-14.9121 40.1924 -39.4883 40.1924
c-24.5918 0 -33.8555 -17.0879 -33.8555 -17.0879h-40.4961l21.1523 121.184h125.136v-36.1924h-92.4961c-5.64844 -32.96 -8.46387 -51.4395 -8.46387 -51.4395c3.21582 0 8.46387 17.2803 45.9355 17.2803c46.3525 0 58.6406 -41.3926 60.2559 -41.3926
c1.61621 0 16.9287 50.4482 70.5283 50.4482c53.6006 0 84.832 -50.4482 86.8477 -50.4482c2.0166 0 33.4561 50.4482 86.6562 50.4482zM305.664 160.976v0v0.0322266h-0.015625c-0.352539 0.432617 -31.1367 37.8086 -59.6807 37.8086
c-28.6875 0 -34 -28.5928 -34 -37.8086v0v-0.015625v-0.0166016v0c0 -9.21582 5.3125 -37.8076 34 -37.8076c28.5439 0 59.3281 37.376 59.6807 37.8076h0.015625zM453.584 160.976v0c-0.015625 9.23242 -5.31152 37.8242 -34 37.8242
c-28.5439 0 -59.3281 -37.376 -59.6797 -37.8076h-0.0166016l0.0166016 -0.0166016l-0.0166016 -0.015625h0.0166016c0.351562 -0.431641 31.1357 -37.8076 59.6797 -37.8076c28.6885 0 34 28.6074 34 37.8232v0z" />
    <glyph glyph-name="camera" unicode="&#xf162;" 
d="M184 352h8h128h8l5 -6.5l19 -25.5h96h16v-16v-256v-16h-16h-384h-16v16v256v16h16h96l19 25.5zM200 320l-19 -25.5l-5 -6.5h-8h-88v-224h352v224h-88h-8l-5 6.5l-19 25.5h-112zM128 272c8.83691 0 16 -7.16309 16 -16s-7.16309 -16 -16 -16s-16 7.16309 -16 16
s7.16309 16 16 16zM256 272c52.8301 0 96 -43.1699 96 -96s-43.1699 -96 -96 -96s-96 43.1699 -96 96s43.1699 96 96 96zM256 240c-35.5361 0 -64 -28.4639 -64 -64s28.4639 -64 64 -64s64 28.4639 64 64s-28.4639 64 -64 64z" />
    <glyph glyph-name="music" unicode="&#xf299;" 
d="M432 387.5v-19.5v-256c0 -35.1562 -28.8438 -64 -64 -64s-64 28.8438 -64 64s28.8438 64 64 64c11.7188 0 22.5186 -3.4248 32 -9v118l-224 -42v-179c0 -35.1562 -28.8438 -64 -64 -64s-64 28.8438 -64 64s28.8438 64 64 64c11.7188 0 22.5186 -3.4248 32 -9v201v13.5
l13 2l256 48zM400 349l-224 -42v-32l224 42v32zM368 144c-17.8623 0 -32 -14.1377 -32 -32s14.1377 -32 32 -32s32 14.1377 32 32s-14.1377 32 -32 32zM112 96c-17.8623 0 -32 -14.1377 -32 -32s14.1377 -32 32 -32s32 14.1377 32 32s-14.1377 32 -32 32z" />
    <glyph glyph-name="gg-circle" unicode="&#xf211;" 
d="M192 342.5l11.5 -11l32 -32l-23 -23l-20.5 20.5l-105 -105l105 -105l41 41l-68.5 68.5l23 23l80 -80l11 -11.5l-11 -11.5l-64 -64l-11.5 -11l-11.5 11l-128 128l-11 11.5l11 11.5l128 128zM320 342.5l11.5 -11l128 -128l11 -11.5l-11 -11.5l-128 -128l-11.5 -11l-11.5 11
l-32 32l23 23l20.5 -20.5l105 105l-105 105l-41 -41l68.5 -68.5l-23 -23l-80 80l-11 11.5l11 11.5l64 64z" />
    <glyph glyph-name="sort" unicode="&#xf306;" 
d="M256 390.5l11.5 -11l128 -128l27 -27.5h-38.5h-256h-38.5l27 27.5l128 128zM256 345l-89 -89h178zM89.5 160h38.5h256h38.5l-27 -27.5l-128 -128l-11.5 -11l-11.5 11l-128 128zM167 128l89 -89l89 89h-178z" />
    <glyph glyph-name="pencil" unicode="&#xf2b0;" 
d="M395 383.5c13.3906 0 26.8672 -5.36719 37 -15.5c20.2666 -20.2666 20.2666 -53.2334 0 -73.5l-0.5 -1l-1 -1l9.5 -9.5l-11 -11l-249.5 -249.5l-3.5 -3.5l-5 -1l-88 -17.5l-23.5 -5l5 23.5l17.5 88l1 5l3.5 3.5l249.5 249.5l11 11l10 -9.5l1.5 1.5
c10.1328 10.1328 23.1094 15.5 36.5 15.5zM395 352c-4.99121 0 -9.7334 -2.2334 -14 -6.5l-1.5 -1.5l28.5 -28.5l1.5 1.5c8.5332 8.5332 8.5332 19.9668 0 28.5c-4.2666 4.2666 -9.50879 6.5 -14.5 6.5zM347.5 331l-23.5 -23l48 -48l23 23.5zM302 285l-167.5 -167l29 -6.5
l10 -2l2 -10l6.5 -29l167 167.5zM111.5 90.5l-6.5 -32.5l17 -17l32.5 6.5l-8 35z" />
    <glyph glyph-name="bookmark-o" unicode="&#xf150;" 
d="M112 368h16h256h16v-16v-320v-32l-25.5 19l-118.5 89l-118.5 -89l-25.5 -19v32v320v16zM144 336v-272l102.5 77l9.5 7l9.5 -7l102.5 -77v272h-224z" />
    <glyph glyph-name="diamond" unicode="&#xf1b9;" 
d="M152.5 352h7.5h192h7.5l5 -6l80 -96l8 -9.5l-8 -10.5l-176 -224l-12.5 -16l-12.5 16l-176 224l-8 10.5l8 9.5l80 96zM167.5 320l-53.5 -64h69l43 64h-58.5zM286 320l43 -64h69l-53.5 64h-58.5zM256 306.5l-34 -50.5h68zM112.5 224l105.5 -134.5l-38 134.5h-67.5zM213 224
l43 -149l42.5 149h-85.5zM332 224l-38 -134l105.5 134h-67.5z" />
    <glyph glyph-name="share" unicode="&#xf2f0;" 
d="M315.5 363.5l128 -128l11 -11.5l-11 -11.5l-128 -128l-23 23l100.5 100.5h-217c-44.3789 0 -80 -35.6211 -80 -80s35.6211 -80 80 -80v-32c-61.6689 0 -112 50.3311 -112 112s50.3311 112 112 112h217l-100.5 100.5z" />
    <glyph glyph-name="hourglass-1" unicode="&#xf23b;" 
d="M112 384h288v-32h-32v-64c0 -40.6738 -21.8984 -76.3779 -54.5 -96c32.6016 -19.6221 54.5 -55.3262 54.5 -96v-64h32v-32h-32h-224h-32v32h32v64c0 40.6738 21.8984 76.3779 54.5 96c-32.6016 19.6221 -54.5 55.3262 -54.5 96v64h-32v32zM176 352v-64
c0 -44.3789 35.6211 -80 80 -80s80 35.6211 80 80v64h-160zM192 320h128v-32c0 -35.3438 -28.6562 -64 -64 -64s-64 28.6562 -64 64v32zM256 176c-44.3789 0 -80 -35.6211 -80 -80v-64h160v64c0 44.3789 -35.6211 80 -80 80z" />
    <glyph glyph-name="envelope" unicode="&#xf1c6;" 
d="M48 320h16h384h16v-16v-256v-16h-16h-384h-16v16v256v16zM117 288l139 -92.5l139 92.5h-278zM80 274v-210h352v210l-167 -111.5l-9 -5.5l-9 5.5z" />
    <glyph glyph-name="yahoo" unicode="&#xf386;" 
d="M117.44 351.536c0 0 12.5596 -2.73633 23.0557 -2.73633s22.832 2.95996 22.832 2.95996l92.6719 -154.304l93.1357 154.544s10.0479 -3.42383 22.5918 -3.42383c12.5449 0 22.832 3.2002 22.832 3.2002l-119.151 -201.345l3.2002 -149.983
s-12.5605 3.42383 -22.5928 3.42383c-10.0312 0 -23.0713 -3.87207 -23.0713 -3.87207l3.64746 150.656z" />
    <glyph glyph-name="glass" unicode="&#xf218;" 
d="M132 368h10.5h227h10.5l4 -9.5c9.36328 -21.2236 16 -49.2168 16 -86.5c0 -73.8506 -56.2598 -134.899 -128 -143v-97h80v-32h-192v32h80v97c-71.7402 8.10059 -128 69.1494 -128 143c0 37.207 6.61328 65.2324 16 86.5zM154.5 336
c-5.78906 -16.0176 -10.5 -35.7666 -10.5 -64c0 -62.04 49.96 -112 112 -112c56.5645 0 102.729 41.6484 110.5 96h-190.5v32h191c-1.29492 19.8613 -4.43164 35.3174 -9 48h-203.5z" />
    <glyph glyph-name="flag" unicode="&#xf1f7;" 
d="M80 368h32h160v-224h-160v-160h-32v160v224zM288 320h144v-224h-144v224z" />
    <glyph glyph-name="train" unicode="&#xf349;" 
d="M224 400h64c20.1387 0 34.4277 -14.248 41.5 -32h22.5c43.9922 0 80 -36.0078 80 -80v-176c0 -38.7939 -23.208 -72.3936 -56.5 -87.5l40.5 -40.5h-37.5l-32.5 32.5c-3.21777 -0.329102 -6.69824 -0.5 -10 -0.5h-160c-3.30176 0 -6.78223 0.170898 -10 0.5l-32.5 -32.5
h-37.5l40.5 40.5c-33.292 15.1064 -56.5 48.7061 -56.5 87.5v176c0 43.9922 36.0078 80 80 80h22.5c7.07227 17.752 21.3613 32 41.5 32zM224 368c-9.04004 0 -16 -6.95996 -16 -16v-16h-16h-32c-21.0938 0 -38.9883 -13.248 -45.5 -32h283
c-6.51172 18.752 -24.4062 32 -45.5 32h-32h-16v16c0 9.04004 -6.95996 16 -16 16h-64zM112 272v-80h288v80h-288zM112 160v-48c0 -35.5264 28.4736 -64 64 -64h160c35.5264 0 64 28.4736 64 64v48h-288zM256 144c17.6729 0 32 -14.3271 32 -32s-14.3271 -32 -32 -32
s-32 14.3271 -32 32s14.3271 32 32 32z" />
    <glyph glyph-name="bullhorn" unicode="&#xf156;" 
d="M448 399.5v-31.5v-115c18.4922 -6.69141 32 -24.3281 32 -45s-13.5078 -38.3086 -32 -45v-115v-31.5l-25.5 18.5s-32.1064 23.0859 -78 46.5s-105.39 46.5 -157 46.5h-54l26 -91.5l5.5 -20.5h-21h-64h-12l-3.5 11.5l-32 112l-0.5 2.5v2v128v16h16h139.5
c52.3271 0 111.791 22.5977 157.5 46s77.5 47 77.5 47zM416 340c-13.1221 -8.93359 -23.3359 -17.0205 -56.5 -34c-46.8711 -23.9971 -107.608 -48.8057 -167.5 -50v-96c59.3223 -1.17188 119.986 -25.5146 167 -49.5c33.2432 -16.96 43.7676 -25.0693 57 -34v83.5v16v64v16
v84zM64 256v-96h96v96h-96zM69.5 128l22.5 -80h30.5l-22.5 80h-30.5z" />
    <glyph glyph-name="folder" unicode="&#xf1fe;" 
d="M96 400h16h256h16h48h16v-16v-144v-6.5l-4.5 -5l-27.5 -27.5v-201v-16h-16h-288h-16v16v384v16zM128 368v-352h256v185l-27.5 27.5l-4.5 5v6.5v128h-224zM384 368v-121l16 -16l16 16v121h-32z" />
    <glyph glyph-name="outdent" unicode="&#xf2a5;" 
d="M48 336h416v-32h-416v32zM48 272h304v-32h-304v32zM464 272v-160l-80 80zM48 208h304v-32h-304v32zM48 144h304v-32h-304v32zM48 80h416v-32h-416v32z" />
    <glyph glyph-name="stumbleupon" unicode="&#xf326;" 
d="M256 384c105.6 0 192 -86.4004 192 -192s-86.4004 -192 -192 -192s-192 86.4004 -192 192s86.4004 192 192 192zM256 272c9.59961 0 16 -6.40039 16 -16v-16c0 -9.59961 6.40039 -16 16 -16s16 6.40039 16 16v16c0 27.2002 -20.7998 48 -48 48s-48 -20.7998 -48 -48v-96
c0 -9.59961 -6.40039 -16 -16 -16s-16 6.40039 -16 16v32h-32v-32c0 -27.2002 20.7998 -48 48 -48s48 20.7998 48 48v96c0 9.59961 6.40039 16 16 16zM368 160v32h-32v-32c0 -9.59961 -6.40039 -16 -16 -16s-16 6.40039 -16 16v36.7998
c-4.7998 -3.2002 -9.59961 -4.7998 -16 -4.7998s-11.2002 1.59961 -16 4.7998v-36.7998c0 -27.2002 20.7998 -48 48 -48s48 20.7998 48 48z" />
    <glyph glyph-name="i-cursor" unicode="&#xf244;" 
d="M160 368h32c26.1201 0 49.375 -12.9775 64 -32.5c14.625 19.5225 37.8799 32.5 64 32.5h32v-32h-32c-26.6953 0 -48 -21.3047 -48 -48v-64h48v-32h-48v-96c0 -26.6953 21.3047 -48 48 -48h32v-32h-32c-26.1201 0 -49.375 12.9775 -64 32.5
c-14.625 -19.5225 -37.8799 -32.5 -64 -32.5h-32v32h32c26.6953 0 48 21.3047 48 48v96h-48v32h48v64c0 26.6953 -21.3047 48 -48 48h-32v32z" />
    <glyph glyph-name="car" unicode="&#xf164;" 
d="M152 352h208c21.1221 0 39.9238 -13.7607 46 -34l22 -73.5l31 10.5l10 -30l-31.5 -10.5l10 -34c0.280273 -1.08594 0.507812 -2.87793 0.507812 -3.99902c0 -0.138672 -0.00390625 -0.363281 -0.0078125 -0.500977v-112
c0.0273438 -0.344727 0.0488281 -0.904297 0.0488281 -1.25s-0.0214844 -0.905273 -0.0488281 -1.25v-13.5c0 -8.83203 -7.16797 -16 -16 -16h-48l-5.5 16h-245l-5.5 -16h-48c-8.83203 0 -16 7.16797 -16 16v14.5c-0.00976562 0.207031 -0.0175781 0.542969 -0.0175781 0.75
s0.0078125 0.542969 0.0175781 0.75v112c-0.00390625 0.137695 -0.0078125 0.362305 -0.0078125 0.500977c0 1.12109 0.227539 2.91309 0.507812 3.99902l10 34l-31.5 10.5l10 30l31 -10.5l22 73.5c6.07324 20.252 24.8779 34 46 34zM152 320
c-7.13379 0 -13.4453 -4.64746 -15.5 -11.5l-20.5 -68.5h280l-20.5 68.5c-2.05176 6.83203 -8.36621 11.5 -15.5 11.5h-208zM106.5 208l-10.5 -35v-93h48h272v93l-10.5 35h-299zM136 192c13.2549 0 24 -10.7451 24 -24s-10.7451 -24 -24 -24s-24 10.7451 -24 24
s10.7451 24 24 24zM376 192c13.2549 0 24 -10.7451 24 -24s-10.7451 -24 -24 -24s-24 10.7451 -24 24s10.7451 24 24 24zM192 144h128l20 -48h-34.5l-7 16h-85l-7 -16h-34.5z" />
    <glyph glyph-name="file-excel-o" unicode="&#xf1e3;" 
d="M80 400h16h288h16v-16v-96h-32v80h-256v-80h-32v96v16zM112 256h32l16 -32l16 32h32l-32 -64l32 -64h-32l-16 32l-16 -32h-32l32 64zM224 256h32v-96h32v-32h-48h-16v16v112zM344 256c11.7334 0 22.4385 -4.58496 29.5 -12s10.5 -17.0908 10.5 -26.5h-32
c0 1.79004 -0.561523 3.51465 -1.5 4.5s-2.2334 2 -6.5 2c-3.4668 0 -8 -4.5332 -8 -8s4.5332 -8 8 -8c22.1338 0 40 -17.8662 40 -40c0 -20.7998 -17.3037 -40 -40 -40c-11.709 0 -22.6084 3.71973 -30 11.5s-10 17.9336 -10 27h32c0 -3.7334 0.791016 -4.78027 1 -5
s1.10938 -1.5 7 -1.5c6.10352 0 8 3.2002 8 8c0 3.4668 -4.5332 8 -8 8c-22.1338 0 -40 17.8662 -40 40s17.8662 40 40 40zM80 96h32v-80h256v80h32v-96v-16h-16h-288h-16v16v96z" />
    <glyph glyph-name="arrow-circle-o-left" unicode="&#xf11a;" 
d="M256 400c114.686 0 208 -93.3145 208 -208s-93.3145 -208 -208 -208s-208 93.3145 -208 208s93.3145 208 208 208zM256 368c-97.3916 0 -176 -78.6084 -176 -176s78.6084 -176 176 -176s176 78.6084 176 176s-78.6084 176 -176 176zM244.5 294.5l23 -22.5l-64 -64h164.5
v-32h-164.5l64 -64l-23 -22.5l-91 91l-11.5 11.5l11.5 11.5z" />
    <glyph glyph-name="paragraph" unicode="&#xf2ab;" 
d="M192 368h192v-32h-32v-320h-32v320h-32v-320h-32v160h-64c-52.8262 0 -96 43.1738 -96 96s43.1738 96 96 96zM192 336c-35.5264 0 -64 -28.4736 -64 -64s28.4736 -64 64 -64h64v128h-64z" />
    <glyph glyph-name="file-photo-o" unicode="&#xf1e8;" 
d="M80 400h16h192h6.5l5 -4.5l96 -96l4.5 -5v-6.5v-288v-16h-16h-288h-16v16v384v16zM112 368v-352h256v256h-80h-16v16v80h-160zM304 345v-41h41zM321.5 224c8.83691 0 16 -7.16309 16 -16s-7.16309 -16 -16 -16s-16 7.16309 -16 16s7.16309 16 16 16zM208 198.5l11.5 -11
l36.5 -36.5l20.5 20.5l11.5 11l11.5 -11l48 -48l-23 -23l-36.5 36.5l-20.5 -20.5l-11.5 -11l-11.5 11l-36.5 36.5l-52.5 -52.5l-23 23l64 64z" />
    <glyph glyph-name="y-combinator" unicode="&#xf384;" 
d="M80 368h16h320h16v-16v-320v-16h-16h-320h-16v16v320v16zM112 336v-288h288v288h-288zM184 272h32l40 -68.5l40 68.5h32l-56 -96v-80h-32v80z" />
    <glyph glyph-name="cab" unicode="&#xf15a;" 
d="M208 384h96l10.5 -32h45.5c21.1221 0 39.9238 -13.7607 46 -34l22 -73.5l31 10.5l10 -30l-31.5 -10.5l10 -34c0.280273 -1.08594 0.507812 -2.87793 0.507812 -3.99902c0 -0.138672 -0.00390625 -0.363281 -0.0078125 -0.500977v-112
c0.0273438 -0.344727 0.0488281 -0.904297 0.0488281 -1.25s-0.0214844 -0.905273 -0.0488281 -1.25v-13.5c0 -8.83203 -7.16797 -16 -16 -16h-48l-5.5 16h-245l-5.5 -16h-48c-8.83203 0 -16 7.16797 -16 16v14.5c-0.00976562 0.207031 -0.0175781 0.542969 -0.0175781 0.75
s0.0078125 0.542969 0.0175781 0.75v112c-0.00390625 0.137695 -0.0078125 0.362305 -0.0078125 0.500977c0 1.12109 0.227539 2.91309 0.507812 3.99902l10 34l-31.5 10.5l10 30l31 -10.5l22 73.5c6.07324 20.252 24.8779 34 46 34h45.5zM152 320
c-7.13379 0 -13.4453 -4.64746 -15.5 -11.5l-20.5 -68.5h280l-20.5 68.5c-2.05176 6.83203 -8.36621 11.5 -15.5 11.5h-208zM106.5 208l-10.5 -35v-93h48h272v93l-10.5 35h-299zM136 192c13.2549 0 24 -10.7451 24 -24s-10.7451 -24 -24 -24s-24 10.7451 -24 24
s10.7451 24 24 24zM376 192c13.2549 0 24 -10.7451 24 -24s-10.7451 -24 -24 -24s-24 10.7451 -24 24s10.7451 24 24 24zM192 144h128l20 -48h-34.5l-7 16h-85l-7 -16h-34.5z" />
    <glyph glyph-name="male" unicode="&#xf27b;" 
d="M272 384h10l4.5 -9l12.5 -25c20.4316 -2.24707 41.0703 -9.5752 56.5 -27.5c18.2051 -21.1484 28.5 -53.3154 28.5 -98.5v-14.5c9.13574 -8.74023 16 -19.959 16 -33.5c0 -20.1553 -14.25 -34.4717 -32 -41.5c-5.90918 -18.6826 -12.8701 -38.2822 -20 -55
c-7.78516 -18.2559 -14.3115 -32.7529 -24 -43c-45.916 -48.5801 -122.084 -48.5801 -168 0c-9.68848 10.2471 -16.7148 24.7441 -24.5 43c-7.12793 16.7139 -13.5918 36.3213 -19.5 55c-17.7432 7.02832 -32 21.3447 -32 41.5c0 13.6191 6.8418 24.7881 16 33.5v14.5
c0 48.6797 13.1377 89.7881 43 118s74.3477 42 133 42zM262.5 351c-47.5703 -1.59473 -80.9961 -12.6289 -101.5 -32c-22.0498 -20.832 -33 -51.8555 -33 -95v-20.5v-9l-8 -4.5c-4.90918 -2.83594 -8 -8.01758 -8 -14c0 -8.53711 6.13672 -15.3164 14.5 -16l11 -0.5l3 -10.5
c5.91797 -19.251 13.2891 -39.5918 20.5 -56.5s15.4648 -31.3184 18 -34c34.0518 -36.0273 87.9482 -36.0273 122 0c2.53516 2.68164 10.7891 17.0918 18 34s14.582 37.249 20.5 56.5l3 10.5l11 0.5c8.38672 0.685547 14.5 7.46289 14.5 16c0 6.08398 -3.1377 11.1914 -8 14
l-8 4.5v9v20.5c0 40.2871 -9.39258 64.0156 -21 77.5c-5.63965 6.55176 -12.0527 11.0508 -19 14c0.384766 -2.37695 0.933594 -4.64941 1 -7c0.304688 -10.7236 -4.4707 -21.6621 -12 -28c-15.0576 -12.6748 -32.8057 -11.627 -50 -12.5s-34.7861 -2.04883 -45 -6
s-13.874 -6.22559 -14 -22h-32c0.208984 25.9609 16.2363 44.9355 34.5 52s37.8457 6.6543 54.5 7.5s30.1123 4.33203 31.5 5.5c0.694336 0.583984 0.592773 -0.746094 0.5 2.5s-2.16016 10.835 -7.5 21.5zM192 192c8.83691 0 16 -7.16309 16 -16s-7.16309 -16 -16 -16
s-16 7.16309 -16 16s7.16309 16 16 16zM288 192c8.83691 0 16 -7.16309 16 -16s-7.16309 -16 -16 -16s-16 7.16309 -16 16s7.16309 16 16 16z" />
    <glyph glyph-name="history" unicode="&#xf236;" 
d="M256 384c105.848 0 192 -86.1523 192 -192s-86.1523 -192 -192 -192s-192 86.1523 -192 192h32c0 -88.5527 71.4473 -160 160 -160s160 71.4473 160 160s-71.4473 160 -160 160c-59.2363 0 -110.35 -32.3125 -138 -80h58v-32h-96h-16v16v96h32v-53.5
c34.4521 51.7129 93.3271 85.5 160 85.5zM240 320h32v-112h80v-32h-96h-16v16v128z" />
    <glyph glyph-name="h-square" unicode="&#xf221;" 
d="M80 368h16h320h16v-16v-320v-16h-16h-320h-16v16v320v16zM112 336v-288h288v288h-288zM176 288h32v-80h96v80h32v-192h-32v80h-96v-80h-32v192z" />
    <glyph glyph-name="heart" unicode="&#xf233;" 
d="M360 368c66.1758 0 120 -53.8242 120 -120c0 -41.4404 -37.8398 -79.1523 -39.4561 -80.752l-184.544 -184.544l-184.64 184.64c-1.52051 1.50391 -39.3604 39.2158 -39.3604 80.6562c0 66.1758 53.8242 120 120 120c46.2725 0 85.2324 -28.8643 104 -45.6641
c18.7676 16.7998 57.7275 45.6641 104 45.6641z" />
    <glyph glyph-name="sort-amount-desc" unicode="&#xf30a;" 
d="M64 368h192v-32h-192v32zM336 368h32v-299l41.5 41.5l22.5 -22.5l-68.5 -69l-11.5 -11l-11.5 11l-68.5 69l22.5 22.5l41.5 -41.5v299zM64 304h160v-32h-160v32zM64 240h128v-32h-128v32zM64 176h96v-32h-96v32zM64 112h64v-32h-64v32zM64 48h32v-32h-32v32z" />
    <glyph glyph-name="search-plus" unicode="&#xf2ed;" 
d="M304 400c88.1758 0 160 -71.8242 160 -160s-71.8242 -160 -160 -160c-38.3203 0 -73.4102 13.4229 -101 36l-127.5 -127.5l-23 23l127.5 127.5c-22.5771 27.5898 -36 62.6797 -36 101c0 88.1758 71.8242 160 160 160zM304 368c-70.8818 0 -128 -57.1182 -128 -128
s57.1182 -128 128 -128s128 57.1182 128 128s-57.1182 128 -128 128zM288 304h32v-48h48v-32h-48v-48h-32v48h-48v32h48v48z" />
    <glyph glyph-name="life-ring" unicode="&#xf264;" 
d="M256 384c105.85 0 192 -86.1504 192 -192s-86.1504 -192 -192 -192s-192 86.1504 -192 192s86.1504 192 192 192zM256 352c-5.36719 0 -10.7705 -0.487305 -16 -1v-48.5c5.23828 0.756836 10.5576 1.5 16 1.5s10.7617 -0.743164 16 -1.5v48.5
c-5.22949 0.512695 -10.6328 1 -16 1zM208 345c-49.8564 -15.6211 -88.9209 -55.0273 -104.5 -105h51.5c11.0703 23.2471 29.7217 41.8936 53 53v52zM304 345v-52c23.2354 -11.0859 41.9141 -29.7646 53 -53h52c-15.5996 49.7861 -55.2139 89.4004 -105 105zM256 272
c-44.3721 0 -80 -35.6279 -80 -80s35.6279 -80 80 -80s80 35.6279 80 80s-35.6279 80 -80 80zM97 208c-0.511719 -5.22363 -1 -10.6416 -1 -16c0 -5.36719 0.487305 -10.7705 1 -16h48.5c-0.756836 5.23828 -1.5 10.5576 -1.5 16c0 5.39648 0.255859 10.8066 1 16h-48z
M366.5 208c0.756836 -5.23828 1.5 -10.5576 1.5 -16s-0.743164 -10.7617 -1.5 -16h48.5c0.512695 5.22949 1 10.6328 1 16s-0.487305 10.7705 -1 16h-48.5zM103 144c15.5996 -49.7861 55.2139 -89.4004 105 -105v52c-23.2354 11.0859 -41.9141 29.7646 -53 53h-52zM357 144
c-11.0859 -23.2354 -29.7646 -41.9141 -53 -53v-52c49.7861 15.5996 89.4004 55.2139 105 105h-52zM240 81.5v-48.5c5.22949 -0.512695 10.6328 -1 16 -1s10.7705 0.487305 16 1v48.5c-5.23828 -0.756836 -10.5576 -1.5 -16 -1.5s-10.7617 0.743164 -16 1.5z" />
    <glyph glyph-name="lock" unicode="&#xf271;" 
d="M240 400c61.5273 0 112 -50.4727 112 -112v-48h32h16v-16v-224v-16h-16h-288h-16v16v224v16h16h32v48c0 61.5273 50.4727 112 112 112zM240 368c-44.0723 0 -80 -35.9277 -80 -80v-48h160v48c0 44.0723 -35.9277 80 -80 80zM112 208v-192h256v192h-256z" />
    <glyph glyph-name="git-square" unicode="&#xf214;" 
d="M256 416c8.0498 -0.000976562 15.957 -2.94043 22 -9l193 -193c12.0947 -12.0947 12.1191 -31.9131 0 -44l-193 -193c-12.1025 -12.0703 -31.8975 -12.0703 -44 0l-193 193c-12.0947 12.0947 -12.1191 31.9131 0 44l142 142c1.25684 1.95312 3.94434 4.41797 6 5.5
l45 45.5c6.04688 6.04688 13.9502 9.00098 22 9zM256 383.5l-36.5 -36.5l28 -28c2.69336 0.736328 5.57324 1 8.5 1c17.6729 0 32 -14.3271 32 -32c0 -2.76172 -0.342773 -5.44336 -1 -8l57 -57c2.55664 0.657227 5.23828 1 8 1c17.6729 0 32 -14.3271 32 -32
s-14.3271 -32 -32 -32s-32 14.3271 -32 32c0 2.76172 0.342773 5.44434 1 8l-49 49v-125.5c9.55078 -5.53711 16 -15.666 16 -27.5c0 -17.6729 -14.3271 -32 -32 -32s-32 14.3271 -32 32c0 11.834 6.44922 21.9629 16 27.5v137c-9.55078 5.53711 -16 15.666 -16 27.5
c0 2.92676 0.263672 5.80664 1 8.5l-28 28l-132.5 -132.5l191.5 -191.5l191.5 191.5z" />
    <glyph glyph-name="mouse-pointer" unicode="&#xf298;" 
d="M144 406.5l27.5 -27l235 -235.5l23 -23l-32.5 -4l-81 -10l29.5 -58l7 -14.5l-14 -7l-49.5 -25.5l-14.5 -7.5l-7 14.5l-32.5 64.5l-64.5 -54l-26.5 -22v34.5v336v38.5zM176 329v-262.5l53.5 45l15.5 13l9.5 -18l34.5 -69l21 11l-33 64l-10.5 20.5l22.5 3l72 8.5z" />
    <glyph glyph-name="mail-forward" unicode="&#xf278;" 
d="M315.5 363.5l128 -128l11 -11.5l-11 -11.5l-128 -128l-23 23l100.5 100.5h-217c-44.3789 0 -80 -35.6211 -80 -80s35.6211 -80 80 -80v-32c-61.6689 0 -112 50.3311 -112 112s50.3311 112 112 112h217l-100.5 100.5z" />
    <glyph glyph-name="sign-in" unicode="&#xf2fb;" 
d="M96 384h320v-144h-32v112h-256v-320h256v112h32v-144h-320v384zM280 272l22.5 -22.5l-41.5 -41.5h187v-32h-187l41.5 -41.5l-22.5 -22.5l-69 68.5l-11 11.5l11 11.5z" />
    <glyph glyph-name="odnoklassniki-square" unicode="&#xf2a0;" 
d="M240.002 314.76c-20.7236 0 -37.6143 -16.8701 -37.6143 -37.6133c0 -20.7246 16.8906 -37.5986 37.6143 -37.5986c20.7441 0 37.6143 16.874 37.6143 37.5986c0 20.7432 -16.8701 37.6133 -37.6143 37.6133zM240.002 186.328
c-50.0977 0 -90.8438 40.7363 -90.8438 90.8184c0 50.1035 40.7461 90.8535 90.8438 90.8535c50.1104 0 90.8438 -40.75 90.8438 -90.8535c0 -50.084 -40.7334 -90.8184 -90.8438 -90.8184zM276.756 112.218c0 0 50.79 -50.7881 50.7881 -50.7881
c10.4043 -10.3818 10.4043 -27.2422 0 -37.6338c-10.3916 -10.3936 -27.2402 -10.3936 -37.624 0l-49.9297 49.9082l-49.8867 -49.9082c-5.20117 -5.19434 -12.0176 -7.79395 -18.834 -7.79395c-6.80371 0 -13.6094 2.60156 -18.8115 7.79395
c-10.3936 10.3926 -10.3936 27.2402 -0.00976562 37.6338l50.79 50.7881c-18.4941 4.21387 -36.3301 11.542 -52.752 21.8506c-12.4346 7.83398 -16.1699 24.2578 -8.33594 36.6992c7.81543 12.458 24.2373 16.2061 36.6914 8.37207
c37.1904 -23.3955 85.1025 -23.4053 122.312 0c12.4521 7.83398 28.876 4.08789 36.6992 -8.37207c7.83496 -12.4316 4.08691 -28.8652 -8.34375 -36.6992c-16.4238 -10.3203 -34.2598 -17.6367 -52.7539 -21.8506z" />
    <glyph glyph-name="tag" unicode="&#xf330;" 
d="M256 368h6.5h153.5h16v-16v-153.5v-6.5l-4.5 -5l-184.5 -182.5l-11 -11l-11.5 11l-152 152l-11 11.5l11 11l182.5 184.5zM269.5 336l-167 -168l129.5 -129.5l168 167v130.5h-130.5zM352 304c8.83691 0 16 -7.16309 16 -16s-7.16309 -16 -16 -16s-16 7.16309 -16 16
s7.16309 16 16 16z" />
    <glyph glyph-name="align-justify" unicode="&#xf104;" 
d="M48 336h416v-32h-416v32zM48 272h416v-32h-416v32zM48 208h416v-32h-416v32zM48 144h416v-32h-416v32zM48 80h416v-32h-416v32z" />
    <glyph glyph-name="level-up" unicode="&#xf261;" 
d="M256 365l72 -77h-56v-160h-32v160h-56zM80 272h32v-224h288v224h32v-240v-16h-16h-320h-16v16v240z" />
    <glyph glyph-name="chevron-circle-down" unicode="&#xf180;" 
d="M256 400c114.686 0 208 -93.3145 208 -208s-93.3145 -208 -208 -208s-208 93.3145 -208 208s93.3145 208 208 208zM256 368c-97.3916 0 -176 -78.6084 -176 -176s78.6084 -176 176 -176s176 78.6084 176 176s-78.6084 176 -176 176zM171.5 243.5l84.5 -84.5l84.5 84.5
l23 -23l-96 -96l-11.5 -11l-11.5 11l-96 96z" />
    <glyph glyph-name="filter" unicode="&#xf1f3;" 
d="M80 384h16h320h16v-16v-16v-5.5l-3.5 -4.5l-124.5 -155.5v-106.5v-8l-6.5 -5l-64 -48l-25.5 -19v32v154.5l-124.5 155.5l-3.5 4.5v5.5v16v16zM116.5 352l115 -144h49l115 144h-279zM240 176v-112l32 24v88h-32z" />
    <glyph glyph-name="sticky-note-o" unicode="&#xf322;" 
d="M80 368h16h320h16v-16v-224v-6.5l-4.5 -5l-96 -96l-5 -4.5h-6.5h-224h-16v16v320v16zM112 336v-288h192v80v16h16h80v192h-288zM336 112v-41l41 41h-41z" />
    <glyph glyph-name="moon-o" unicode="&#xf295;" 
d="M256 400c107.114 0 194.393 -79.7246 206.5 -183.5l1 -12.5l-11 -4.5c-0.486328 -0.194336 -4.5 -5.01074 -4.5 -7.5s4.01367 -7.30566 4.5 -7.5l11 -4.5l-1 -12.5c-12.1074 -103.775 -99.3857 -183.5 -206.5 -183.5c-12.7236 0 -23.5107 1.92969 -34.5 3.5l-12 1.5
l-1.5 12.5c-0.738281 7.38281 -8.5332 14.5 -16 14.5c-4.2666 0 -7.98535 -1.98535 -12.5 -6.5l-8.5 -8.5l-10.5 5.5c-67.7314 34.7344 -112.5 105.871 -112.5 185.5c0 46.7559 15.6572 88.542 41.5 123l8 11l12 -6c-0.616211 0.308594 -0.700195 0 2.5 0
c8.87305 0 16 7.12695 16 16c0 3.2002 -0.308594 3.11621 0 2.5l-6 12l11 8c34.458 25.8428 76.2441 41.5 123 41.5zM242.5 367.5c-30.8252 -2.56836 -58.083 -13.9326 -82.5 -30.5v-1c0 -26.3271 -21.6729 -48 -48 -48h-1c-18.9336 -27.9053 -31 -59.6162 -31 -96
c0 -64.3809 35.3604 -121.39 88 -152c6.92188 4.32031 14.5693 8 24 8c19.1172 0 33.293 -12.8682 41 -29.5c3.70312 -0.526367 7.01855 -1.03906 10.5 -1.5c6.34766 4.29395 18.9199 13.7959 33.5 31.5l5 6h7.5h5c3.58105 0 3 -0.581055 3 3
c0 1.24414 0.0996094 0.799805 -1.5 4l-4 8l4.5 7.5c16.0498 26.2637 30 65.1094 30 115c0 3.7334 -1.5 11.9336 -1.5 21v9.5l8.5 4.5c1.62988 0.814453 2.5 1.90039 2.5 3.5c0 2.48926 -0.293945 3.13184 -2.5 3.5l-9.5 1.5l-3 9c-1.9375 5.81152 -3.7373 12.2119 -5 16
l-3 9.5l7 7c5.45703 5.45703 6.5 6.7334 6.5 11c0 7.4668 -5.5332 13 -13 13h-3h-9l-4.5 7.5c-21.9932 35.4326 -46.0977 53.4131 -54.5 59zM293 364c8.62988 -9.30566 17.7578 -20.4424 26.5 -33.5c21.3438 -3.34863 39 -20.293 39 -42.5
c0 -10.667 -4.83301 -18.6191 -10 -25.5c0.364258 -1.27344 1.1709 -2.36719 1.5 -3.5c10.168 -6.43457 18 -16.3037 18 -28.5c0 -9.50977 -4.6543 -17.2617 -10.5 -23.5c0.466797 -4.22168 1 -8.52637 1 -15c0 -52.4717 -13.9316 -94.0498 -31.5 -125
c1.05762 -3.19043 2.5 -5.2168 2.5 -9.5c0 -17.4746 -14.415 -31.3926 -31.5 -33.5c-1.19434 -1.3584 -2.31445 -2.21582 -3.5 -3.5c69.9775 15.4873 122.604 72.1475 134 144c-7.24707 7.3252 -12.5 16.3594 -12.5 27.5s5.25293 20.1748 12.5 27.5
c-11.4814 72.3926 -64.7344 129.526 -135.5 144.5zM219.5 314.5c2.9668 -0.0136719 5.99414 -0.398438 9 -1l-6 -31.5c-7.9541 1.59082 -16.0059 -3.18555 -18.5 -11.5c-1.98828 -6.62695 3.40527 -14.4219 12 -17l-9.5 -30.5c-23.4053 7.02148 -40.6123 31.627 -33 57
c6.21777 20.7256 25.2295 34.5986 46 34.5zM139.5 195.5l12.5 -29.5c-3.7627 -1.6123 -4.71191 -5.57617 -5 -5l0.5 -0.5v-0.5c1.6123 -3.7627 5.58984 -5.5332 8 -4.5l12.5 -29.5c-19.5088 -8.36035 -40.5625 2.6709 -49 20.5
c-0.104492 0.219727 -0.399414 0.277344 -0.5 0.5c-0.0498047 0.111328 0.100586 0.430664 0 0.5c-8.97852 19.4824 2.68359 40.1504 21 48zM211 142.5l19.5 -25.5c-6.14355 -4.6084 -8.45605 -14.8916 -5 -19.5c4.6084 -6.14355 14.8916 -7.95605 19.5 -4.5l19 -26
c-20.9922 -15.7441 -49.4082 -7.95605 -64 11.5c-15.7441 20.9922 -8.45605 49.4082 11 64z" />
    <glyph glyph-name="comments-o" unicode="&#xf1a2;" 
d="M32 368h16h288h16v-16v-224v-16h-16h-138.5l-75.5 -60.5l-26 -21v33.5v48h-48h-16v16v224v16zM64 336v-192h48h16v-16v-30.5l54 43l4.5 3.5h5.5h128v192h-256zM384 304h96v-256h-64v-81.5l-101.5 81.5h-149l40 32h120l58.5 -46.5v46.5h64v192h-64v32z" />
    <glyph glyph-name="lastfm" unicode="&#xf25a;" 
d="M229.568 94.752v0s-27.7119 -27.2002 -85.6963 -27.2002c-71.8398 0 -111.872 42.0801 -111.872 120.08c0 81.0879 40.0322 128.816 115.424 128.784c68.2559 0 102.641 -24.624 124.192 -91.3438l16.9277 -51.3125c12.3203 -37.4561 33.8721 -64.6562 85.6963 -64.6562
c34.8955 0 53.376 7.71289 53.376 26.6885c0 14.8955 -8.71973 25.6641 -34.8965 31.8242l-34.8955 8.20801c-42.5918 10.2715 -59.5205 32.3359 -59.5205 67.2314c0 55.9199 45.168 73.376 91.3447 73.376c52.3516 0 84.1592 -18.9756 88.2715 -65.168l-51.3115 -6.15918
c-2.06445 22.0791 -15.4082 31.3115 -40.0322 31.3115c-22.5762 0 -36.4326 -10.2725 -36.4326 -27.7119c0 -15.3916 6.67285 -24.624 29.248 -29.7598l32.8486 -7.18457c44.1279 -10.2715 67.7441 -31.8242 67.7441 -73.3916
c0 -51.3125 -43.1045 -70.8164 -106.736 -70.8164c-88.7676 0 -119.568 40.0322 -135.984 89.8086l-16.416 51.3115c-12.3193 37.4717 -26.6875 66.7197 -71.8398 66.7197c-31.3115 0 -63.1201 -22.5752 -63.1201 -85.6953c0 -49.2803 25.1523 -80.0645 60.5605 -80.0645
c40.0156 0 66.7041 29.7598 66.7041 29.7598z" />
    <glyph glyph-name="pagelines" unicode="&#xf2a6;" 
d="M241.5 384c0 0 61.5 -19.8799 61.5 -71c0 -23.5508 -7.81641 -41.5137 -13.5 -52c0.930664 -20.5547 0.292969 -41.7598 -2.5 -63c3.69336 12.4541 13.0957 39.6084 31 56c28.3838 25.9678 80.5 18.5 80.5 18.5s4.99219 -28.9961 -26 -60.5
c-30.1855 -30.6836 -83.6943 -21.0312 -86.5 -20.5c-3.96387 -26.3906 -11.1797 -52.3955 -21.5 -76.5c12.9092 17.1475 40.9785 47 78.5 47c39.6318 0 65.5 -21.5 65.5 -21.5s-23.1758 -58.5 -75 -58.5c-46.8701 0 -70.6016 16.6621 -75 20
c-1.65723 -3.3457 -3.20215 -6.75488 -5 -10c-29.3379 -52.9678 -78.8516 -92 -150 -92v16c65.4121 0 108.683 34.1797 136 83.5c0.539062 0.973633 0.973633 2.01465 1.5 3c-9.54102 -4.32715 -26.0488 -10 -51 -10c-61.4561 0.015625 -80.5 68.5 -80.5 68.5
s29.7041 19.584 61 16c53.3398 -6.0957 71.7363 -42.3301 77.5 -60c10.6494 23.8066 17.9951 50.2441 22 77c-8.69238 -2.11621 -25.625 -5.05469 -51 -0.5c-39.6318 7.10352 -63.9277 35.9121 -69 73c0 0 37.7559 13.7197 67.5 3
c30.6064 -11.0273 47.126 -42.4854 54.5 -60.5c1.6416 15.6797 1.97656 31.2578 1.5 46.5c-14.6104 8.4375 -41.0615 28.3096 -45.5 60c-5.83984 41.9043 13.5 68.5 13.5 68.5z" />
    <glyph glyph-name="list-ul" unicode="&#xf26f;" 
d="M64 368h16h64h16v-16v-64v-16h-16h-64h-16v16v64v16zM96 336v-32h32v32h-32zM192 336h240v-32h-240v32zM64 240h16h64h16v-16v-64v-16h-16h-64h-16v16v64v16zM96 208v-32h32v32h-32zM192 208h240v-32h-240v32zM64 112h16h64h16v-16v-64v-16h-16h-64h-16v16v64v16zM96 80
v-32h32v32h-32zM192 80h240v-32h-240v32z" />
    <glyph glyph-name="file-word-o" unicode="&#xf1ef;" 
d="M80 400h16h288h16v-16v-384v-16h-16h-288h-16v16v384v16zM112 368v-352h256v352h-256zM272 256h16h48v-32h-32v-72c0 -22.1338 -17.8662 -40 -40 -40c-6.17285 0 -9.66406 4.53027 -14.5 7.5c-6.5293 -13.1904 -17.752 -23.5 -33.5 -23.5c-22.1338 0 -40 17.8662 -40 40
v72h-32v32h48h16v-16v-88c0 -3.4668 4.5332 -8 8 -8s8 4.5332 8 8v40v32h32v-32s0.108398 -10.4346 2.5 -20c1.19531 -4.78223 3.17285 -9.23047 4.5 -11s0.333008 -1 1 -1c3.4668 0 8 4.5332 8 8v88v16z" />
    <glyph glyph-name="map" unicode="&#xf27c;" 
d="M448 376.5v-24.5v-272v-10.5l-9.5 -4l-112 -48l-6 -2.5l-6 2l-122 46l-106 -45.5l-22.5 -10v24.5v272v10.5l9.5 4l112 48l6 2.5l6 -2l122 -46l106 45.5zM208 329v-238l96 -36v238zM176 328l-80 -34.5v-237.5l80 34.5v237.5zM416 328l-80 -34.5v-237.5l80 34.5v237.5z" />
    <glyph glyph-name="object-ungroup" unicode="&#xf29e;" 
d="M80 368h64v-16h160v16h64v-64h-16v-32h32v16h64v-64h-16v-160h16v-64h-64v16h-160v-16h-64v64h16v32h-32v-16h-64v64h16v160h-16v64zM144 320v-16h-16v-160h16v-16h160v16h16v160h-16v16h-160zM352 240v-96h16v-64h-64v16h-96v-32h16v-16h160v16h16v160h-16v16h-32z" />
    <glyph glyph-name="briefcase" unicode="&#xf151;" 
d="M256 400c29.8203 0 54.3877 -20.4072 61.5 -48h130.5h16v-16v-288v-16h-16h-384h-16v16v288v16h16h130.5c7.1123 27.5928 31.6797 48 61.5 48zM256 368c-12.9619 0 -22.8438 -6.16113 -28 -16h56c-5.15625 9.83887 -15.0381 16 -28 16zM80 320v-144h352v144h-352z
M256 224c8.83691 0 16 -7.16309 16 -16s-7.16309 -16 -16 -16s-16 7.16309 -16 16s7.16309 16 16 16zM80 144v-80h352v80h-352z" />
    <glyph glyph-name="stop" unicode="&#xf323;" 
d="M80 352h16h288h16v-16v-288v-16h-16h-288h-16v16v288v16zM112 320v-256h256v256h-256z" />
    <glyph glyph-name="clone" unicode="&#xf190;" 
d="M80 368h16h240h16v-16v-48h-32v32h-208v-208h32v-32h-48h-16v16v240v16zM160 288h16h240h16v-16v-240v-16h-16h-240h-16v16v240v16zM192 256v-208h208v208h-208z" />
    <glyph glyph-name="plane" unicode="&#xf2bd;" 
d="M256 400c26.3193 0 48 -21.6807 48 -48v-117.5l134.5 -60l9.5 -4v-10.5v-48v-18l-18 2l-126 14v-29.5l41 -27.5l7 -4.5v-9v-39.5v-19.5l-19 4l-77 15.5l-77 -15.5l-19 -4v19.5v39.5v9l7 4.5l41 27.5v29.5l-126 -14l-18 -2v18v48v10.5l9.5 4l134.5 60v117.5
c0 26.3193 21.6807 48 48 48zM256 368c-9.04004 0 -16 -6.95996 -16 -16v-128v-10.5l-9.5 -4l-134.5 -60v-19.5l126 14l18 2v-18v-56.5v-8.5l-7 -4.5l-41 -27.5v-11.5l61 12l3 1l3 -1l61 -12v11.5l-41 27.5l-7 4.5v8.5v56.5v18l18 -2l126 -14v19.5l-134.5 60l-9.5 4v10.5
v128c0 9.04004 -6.95996 16 -16 16z" />
    <glyph glyph-name="check-square" unicode="&#xf17e;" 
d="M64 384h381l-32 -32h-317v-320h320v189l32 32v-253h-384v384zM436.5 331.5l23 -23l-192 -192l-11.5 -11l-11.5 11l-80 80l23 23l68.5 -68.5z" />
    <glyph glyph-name="unlink" unicode="&#xf35f;" 
d="M348 384c25.6523 0 51.0195 -10.0195 70.5 -29.5c38.9609 -38.9609 38.9609 -102.539 0 -141.5l-23.5 -23.5c-16.2441 -16.2627 -36.8682 -25.8945 -58 -28.5l-4 32c14.4199 1.77832 27.916 7.90332 39 19h0.5l23.5 23.5c26.7344 26.7344 26.7344 69.7656 0 96.5
s-69.7656 26.7344 -96.5 0l-23.5 -23.5c-11.0674 -11.0674 -17.2158 -25.0166 -19 -39.5l-32 4c2.59961 21.1006 12.2393 41.7393 28.5 58l23.5 23.5c19.4805 19.4805 45.3477 29.5 71 29.5zM123.5 347.5l64 -64l-23 -23l-64 64zM175 223l4 -32
c-14.4199 -1.77832 -27.916 -7.90332 -39 -19h-0.5l-23.5 -23.5c-26.7344 -26.7344 -26.7344 -69.7656 0 -96.5s69.7656 -26.7344 96.5 0l23.5 23.5c11.0674 11.0674 17.2158 25.0166 19 39.5l32 -4c-2.59961 -21.1006 -12.2393 -41.7393 -28.5 -58l-23.5 -23.5
c-38.9609 -38.9609 -102.539 -38.9609 -141.5 0s-38.9609 102.539 0 141.5l23.5 23.5c16.2441 16.2627 36.8682 25.8945 58 28.5zM347.5 123.5l64 -64l-23 -23l-64 64z" />
    <glyph glyph-name="github" unicode="&#xf215;" 
d="M255.984 384c106.048 0 192.016 -85.9678 192.016 -192.016c0 -84.8008 -54.96 -156.704 -131.2 -182.16c-9.74414 -1.87207 -13.2002 4.0957 -13.2002 9.23145c0 6.30469 0.240234 27.0088 0.240234 52.6719c0 17.9043 -6.14355 29.6328 -13.04 35.5527
c42.7686 4.75195 87.6641 20.9756 87.6641 94.7354c0 20.96 -7.42383 38.0967 -19.7275 51.5205c1.9834 4.86426 8.57617 24.3838 -1.9043 50.8154c0 0 -16.0957 5.16797 -52.752 -19.6797c-15.3281 4.25586 -31.7598 6.38379 -48.0645 6.46387
c-16.3193 -0.0800781 -32.752 -2.20801 -48.0635 -6.46387c-36.6719 24.8477 -52.7998 19.6797 -52.7998 19.6797c-10.4482 -26.4316 -3.85645 -45.9512 -1.88867 -50.8154c-12.2715 -13.4238 -19.7598 -30.5605 -19.7598 -51.5205
c0 -73.584 44.8164 -90.0479 87.4561 -94.8955c-5.48828 -4.7998 -10.4482 -13.2637 -12.1924 -25.6641c-10.9277 -4.91211 -38.752 -13.3916 -55.8711 15.9521c0 0 -10.1445 18.4316 -29.4082 19.792c0 0 -18.752 0.255859 -1.3125 -11.6641
c0 0 12.5762 -5.9043 21.3125 -28.0801c0 0 11.2637 -37.3438 64.6719 -25.7441c0.0957031 -16.0156 0.255859 -28.0957 0.255859 -32.6562c0 -5.08789 -3.50391 -11.0078 -13.1045 -9.24805c-76.3037 25.3926 -131.312 97.3604 -131.312 182.177
c0 106.048 85.9678 192.016 191.984 192.016z" />
    <glyph glyph-name="step-backward" unicode="&#xf31e;" 
d="M128 368h32v-168l7 5l208 144l25 17.5v-30.5v-288v-30.5l-25 17.5l-208 144l-7 5v-168h-32v352zM368 305.5l-164 -113.5l164 -113.5v227z" />
    <glyph glyph-name="wheelchair" unicode="&#xf37b;" 
d="M320 400c26.3203 0 48 -21.6797 48 -48s-21.6797 -48 -48 -48s-48 21.6797 -48 48s21.6797 48 48 48zM320 368c-9.02637 0 -16 -6.97363 -16 -16s6.97363 -16 16 -16s16 6.97363 16 16s-6.97363 16 -16 16zM232.5 323.5c6.46094 0.735352 13.2422 -0.912109 19 -4v0.5
l27 -15c20.8955 -11.2002 30.5723 -36.1934 22.5 -58.5l-18.5 -51.5c10.9297 -9.84473 20.0996 -21.5859 26.5 -35h30c14.9414 0 28.3203 -10.3721 31.5 -25l21 -97.5l-31 -7l-21.5 97.5h-20.5c0.756836 -5.23828 1.5 -10.5576 1.5 -16c0 -61.666 -50.334 -112 -112 -112
s-112 50.334 -112 112c0 56.2246 41.876 102.677 96 110.5l23.5 66.5l-36.5 -4l-40 -61.5l-27 17l40 62c5.20312 8.06152 13.5137 13.4141 23 14.5zM248.5 285l-23 -62.5c10.3574 -1.63867 20.2793 -4.71289 29.5 -9l16 44c2.74414 7.58203 -0.395508 15.6914 -7.5 19.5z
M208 192c-44.3721 0 -80 -35.6279 -80 -80s35.6279 -80 80 -80s80 35.6279 80 80s-35.6279 80 -80 80z" />
    <glyph glyph-name="cutlery" unicode="&#xf1b1;" 
d="M358.5 384l22.5 -22.5l-73.5 -73.5c-6.95996 -6.95996 -7.10254 -14.9883 -0.5 -22l85 84.5l22.5 -22.5l-84.5 -85c7.01172 -6.60254 15.04 -6.45996 22 0.5l73.5 73.5l22.5 -22.5l-72 -72l-1.5 -2c-18.1758 -18.1758 -47.9678 -18.1221 -66.5 -0.5l-0.5 0.5h-0.5
l-28 -28.5l18.5 -19l146 -145.5l-23 -23l-134.5 134.5l-28.5 -28.5l-11 -11.5l-11.5 11.5l-19 18.5l-124.5 -124.5l-23 23l124.5 124.5l-100.5 100.5c-28.3262 28.3262 -28.3262 74.6738 0 103l11.5 11l11.5 -11l120 -120l20.5 -20.5l28.5 28
c-18.457 18.457 -18.457 49.043 0 67.5zM108.5 316.5c-5.2002 -14.1611 -4.85156 -29.1484 7 -41l131 -131l17 17z" />
    <glyph glyph-name="microphone-slash" unicode="&#xf28d;" 
d="M59.5 411.5l116.5 -116.5v57c0 17.6484 14.3516 32 32 32h96c17.6484 0 32 -14.3516 32 -32v-192c0 -7.01367 -2.16016 -13.7217 -6 -19l22.5 -22.5c9.66309 11.1475 15.5 25.5967 15.5 41.5v64h32v-64c0 -24.6973 -9.62305 -46.9766 -25 -64l100.5 -100.5l-23 -23
l-416 416zM208 352v-89l96 -96v185h-96zM112 224h32v-64c0 -35.2959 28.7041 -64 64 -64h77l31 -31c-3.91992 -0.496094 -7.93555 -1 -12 -1h-32v-32h64v-32h-160v32h64v32h-32c-52.9443 0 -96 43.0557 -96 96v64zM176 205l32 -32v-13h13l32 -32h-45
c-17.6484 0 -32 14.3516 -32 32v45z" />
    <glyph glyph-name="user-plus" unicode="&#xf366;" 
d="M192 416c61.666 0 112 -50.334 112 -112c0 -38.541 -19.6982 -72.834 -49.5 -93c7.77832 -3.33008 15.4209 -7.05176 22.5 -11.5c21.0918 15.3047 47.0459 24.5 75 24.5c70.5029 0 128 -57.4971 128 -128s-57.4971 -128 -128 -128s-128 57.4971 -128 128
c0 30.3516 10.7383 58.5186 28.5 80.5c-18.0283 9.77441 -38.4834 15.5 -60.5 15.5c-70.8906 0 -128 -57.1094 -128 -128h-32c0 65.8994 40.4258 122.522 97.5 147c-29.8018 20.166 -49.5 54.459 -49.5 93c0 61.666 50.334 112 112 112zM192 384
c-44.3721 0 -80 -35.6279 -80 -80s35.6279 -80 80 -80s80 35.6279 80 80s-35.6279 80 -80 80zM352 192c-53.209 0 -96 -42.791 -96 -96s42.791 -96 96 -96s96 42.791 96 96s-42.791 96 -96 96zM336 160h32v-48h48v-32h-48v-48h-32v48h-48v32h48v48z" />
    <glyph glyph-name="truck" unicode="&#xf352;" 
d="M0 384h16h256h16v-16v-48h80h6.5l5 -4.5l96 -96l4.5 -5v-6.5v-144v-16h-16h-34.5c-7.15332 -27.5176 -31.8486 -48 -61.5 -48s-54.3467 20.4824 -61.5 48h-133c-7.15332 -27.5176 -31.8486 -48 -61.5 -48s-54.3467 20.4824 -61.5 48h-34.5h-16v16v304v16zM32 352v-272
h18.5c7.15332 27.5176 31.8486 48 61.5 48s54.3467 -20.4824 61.5 -48h82.5v224v48h-224zM288 288v-208h18.5c7.15332 27.5176 31.8486 48 61.5 48s54.3467 -20.4824 61.5 -48h18.5v121l-87 87h-73zM112 96c-17.8623 0 -32 -14.1377 -32 -32s14.1377 -32 32 -32
s32 14.1377 32 32s-14.1377 32 -32 32zM368 96c-17.8623 0 -32 -14.1377 -32 -32s14.1377 -32 32 -32s32 14.1377 32 32s-14.1377 32 -32 32z" />
    <glyph glyph-name="wrench" unicode="&#xf381;" 
d="M336 400c21.8662 0 42.1367 -5.63184 59 -15l18.5 -10l-15 -15l-68.5 -69l25 -25l69 68.5l15 15l10 -18.5c9.36816 -16.8633 15 -37.1338 15 -59c0 -70.8789 -57.1211 -128 -128 -128c-3.75195 0 -8.8457 0.591797 -13.5 1l-137 -137
c-31.4922 -31.4922 -82.0078 -31.4922 -113.5 0s-31.4922 82.0078 0 113.5l137 137c-0.408203 4.6543 -1 9.74805 -1 13.5c0 70.8789 57.1211 128 128 128zM336 368c-53.9209 0 -96 -42.0781 -96 -96c0 -6.40039 0.00878906 -11.5352 1 -15.5l2.5 -8.5l-6.5 -6.5
l-142.5 -142.5c-19.5352 -19.5352 -19.6934 -48.3027 -0.5 -68l0.5 -0.5c19.707 -19.707 48.793 -19.707 68.5 0l142.5 142.5l6.5 6.5l8.5 -2.5c3.96484 -0.991211 9.09961 -1 15.5 -1c53.9209 0 96 42.0791 96 96c0 7.77539 -3.33691 13.5723 -5 20.5l-60.5 -60.5
l-11.5 -11.5l-11 11.5l-48 48l-11.5 11l11.5 11.5l60.5 60.5c-6.92773 1.66309 -12.7246 5 -20.5 5z" />
    <glyph glyph-name="ambulance" unicode="&#xf108;" 
d="M272 400c17.6797 0 32 -14.3203 32 -32v-16h64h7.5l4.5 -5.5l96 -112l4 -4.5v-6v-160v-16h-16h-34.5c-7.15332 -27.5176 -31.8486 -48 -61.5 -48s-54.3467 20.4824 -61.5 48h-133c-7.15332 -27.5176 -31.8486 -48 -61.5 -48s-54.3467 20.4824 -61.5 48h-34.5h-16v16v272
v16h16h224v16c0 17.6797 14.3203 32 32 32zM32 320v-240h18.5c7.15332 27.5176 31.8486 48 61.5 48s54.3467 -20.4824 61.5 -48h133c7.15332 27.5176 31.8486 48 61.5 48s54.3467 -20.4824 61.5 -48h18.5v138l-87.5 102h-328.5zM208 272h32v-48h48v-32h-48v-48h-32v48h-48
v32h48v48zM112 96c-17.8623 0 -32 -14.1377 -32 -32s14.1377 -32 32 -32s32 14.1377 32 32s-14.1377 32 -32 32zM368 96c-17.8623 0 -32 -14.1377 -32 -32s14.1377 -32 32 -32s32 14.1377 32 32s-14.1377 32 -32 32z" />
    <glyph glyph-name="cc-visa" unicode="&#xf177;" 
d="M80 352h352c26.3193 0 48 -21.6807 48 -48v-224c0 -26.3193 -21.6807 -48 -48 -48h-352c-26.3193 0 -48 21.6807 -48 48v224c0 26.3193 21.6807 48 48 48zM80 320c-9.04004 0 -16 -6.95996 -16 -16v-224c0 -9.04004 6.95996 -16 16 -16h352c9.04004 0 16 6.95996 16 16
v224c0 9.04004 -6.95996 16 -16 16h-352zM310.5 250c13.584 0 27.5 -5.5 27.5 -5.5l-5 -24.5s-10.5117 7.5 -20 7.5c-14.5762 0 -20 -5.09961 -20 -11.5c0 -12.5283 41 -14.3877 41 -42.5c0 -23.376 -29.5078 -39.5 -50.5 -39.5c-21.0078 0 -31.5 6.5 -31.5 6.5l5 23
s11.04 -6 28 -6c16.9277 0 19.5 6.94434 19.5 10c0 17.9355 -41 13.1035 -41 48c0 19.2959 16.1836 34.5 47 34.5zM179 248h31.5l-45 -110.5h-32l-23.5 89.5s24.7197 -12.7598 40 -47c0.65625 -4.16016 2 -11 2 -11zM222 248h29.5l-17.5 -110.5h-29.5zM381 248h31
l22.5 -110.5h-26.5l-3 15.5h-37l-6 -15.5h-29zM77.5 247.5h45c11.5996 0 16 -11 16 -11l10 -50c-13.4561 43.3438 -71 61 -71 61zM392 216l-15.5 -41.5h24z" />
    <glyph glyph-name="superscript" unicode="&#xf32c;" 
d="M399.5 400h1c26.0195 0 47.5 -21.4805 47.5 -47.5c0 -15.6113 -7.65234 -30.1533 -20.5 -39l-34 -23.5c-0.658203 -0.452148 -0.402344 -1.4873 -1 -2h55.5v-32h-80h-16v16c0 17.7725 8.84863 34.4375 23.5 44.5l34 23.5c4.20801 2.89746 6.5 7.40723 6.5 12.5
c0 8.73242 -6.76758 15.5 -15.5 15.5h-1c-8.73242 0 -15.5 -6.76758 -15.5 -15.5v-0.5h-32v0.5c0 26.0195 21.4805 47.5 47.5 47.5zM66.5 320h29.5h64h8.5l5 -7.5l26.5 -41l26.5 41l5 7.5h8.5h64h29.5l-16 -24.5l-66.5 -103.5l66.5 -103.5l16 -24.5h-29.5h-64h-8.5l-5 7.5
l-26.5 41l-26.5 -41l-5 -7.5h-8.5h-64h-29.5l16 24.5l66.5 103.5l-66.5 103.5zM125 288l56.5 -87.5l5.5 -8.5l-5.5 -8.5l-56.5 -87.5h26.5l35 55l13.5 21l13.5 -21l35 -55h26.5l-56.5 87.5l-5.5 8.5l5.5 8.5l56.5 87.5h-26.5l-35 -55l-13.5 -21l-13.5 21l-35 55h-26.5z" />
    </font>
</defs>
</svg>
